img image001 image001 image001 image001 image001 image001 image001 image001 image001 image001 image001 image001 image001 image001 image001

Planets Sun Sun Sun
Статистика раздачи
Автор: Снежана | Размер: 746.71 МБ | Добавлен: 27 июл 2013
Раздают: 71    Качают: 12
Скачать торрент
Скачать торрент
Описание торрента

СообщениеДобавлено: 27 июл 2013 

#77
Страна: Канада
Производство: CarpeDiem Film & TV, Cinema Management Inc., Productions 10th Ave
Жанр: мультфильм, приключения
Год выпуска: 2013
Продолжительность: 01:18:14

Перевод: Профессиональный (дублированный)
Оригинальная аудиодорожка: нет
Cубтитры: нет

Режиссер: Нэнси Севард / Nancy Savard

Роли озвучивали:
Кристофер Пламмер, Рашель Лефевр, Дастин Миллиган, Тим Розон, Женевьев Бюжо, Джеймс Кидни, Тайрон Бенскин, Анджела Галуппо, Илайс Туфексис, Роберт Хигден...

Роли дублировали: Михаил Бескаравайный, Наталья Терешкова, Михаил Тихонов, Дмитрий Поляновский, Галина Казакова...

Описание:
Далеко на севере лагерь эскимосов-кочевников находится под угрозой голода и вымирания. Шаман племени, Крулик, не в силах помочь, и людей охватывает отчаяние. Некоторые из них обретают надежду в древней легенде о далёкой Сариле — земле, спрятанной среди ледников, в которой не существует холода и голода. Легенда гласит, что только те, кто чист сердцем, могут попасть в это священное место. Трое молодых людей соглашаются отправиться на поиски Сарилы, чтобы спасти своё племя. Среди них — юный Маркусси, обладающий способностями шамана. Предчувствуя, что его власть находится под угрозой, старый шаман пытается избавиться от своего соперника с помощью сил зла, пытаясь помешать миссии трёх молодых героев. Постепенно Маркусси понимает, что он должен не только найти Сарилу, но и разоблачить предателя Крулика…





Исходник: DVD5 R5
Тип релиза: DVDRip
Контейнер: AVI

Видео: 720x400 (16:9), 25 fps, XviD ~ 1197 kbps avg, 0.166 bit/pixel
Аудио: 48 kHz, MP3 2.0, 128 kbps

Раздача от:
Общее
Полное имя : Sarila.Zateryannaya.zemlya.2013.DVDRip-745_[Youtracker]_by_AVP Studio.avi
Формат : AVI
Формат/Информация : Audio Video Interleave
Размер файла : 747 Мбайт
Продолжительность : 1 ч. 18 м.
Общий поток : 1334 Кбит/сек
Программа кодирования : VirtualDubModRus 1.5.10.2 (build 2542/release)
Библиотека кодирования : VirtualDubMod build 2542/release

Видео
Идентификатор : 0
Формат : MPEG-4 Visual
Профиль формата : Advanced Simple@L5
Параметр BVOP формата : 1
Параметр QPel формата : Нет
Параметр GMC формата : Без точки перехода
Параметр матрицы формата : Выборочная
Идентификатор кодека : XVID
Идентификатор кодека/Подсказка : XviD
Продолжительность : 1 ч. 18 м.
Битрейт : 1197 Кбит/сек
Ширина : 720 пикселей
Высота : 400 пикселей
Соотношение сторон : 16:9
Частота кадров : 25,000 кадров/сек
Цветовое пространство : YUV
Субдискретизация насыщенности : 4:2:0
Битовая глубина : 8 бит
Тип развёртки : Прогрессивная
Метод сжатия : С потерями
Бит/(Пиксели*Кадры) : 0.166
Размер потока : 670 Мбайт (90%)
Библиотека кодирования : XviD 65

Аудио
Идентификатор : 1
Формат : MPEG Audio
Версия формата : Version 1
Профиль формата : Layer 3
Идентификатор кодека : 55
Идентификатор кодека/Подсказка : MP3
Продолжительность : 1 ч. 18 м.
Вид битрейта : Постоянный
Битрейт : 128 Кбит/сек
Каналы : 2 канала
Частота : 48,0 КГц
Метод сжатия : С потерями
Размер потока : 71,6 Мбайт (10%)
Выравнивание : Соединение по промежуткам
Продолжительность промежутка : 40 мс. (1,00 видеокадр)
Время предзагрузки промежутка : 504 мс.
Библиотека кодирования : L3.99r
Настройки программы : -m s -V 4 -q 2 -lowpass 17 -b 128





   Похожие торренты   Торрент   Размер 
В этой теме нет новых непрочитанных сообщений. Сарила: Затерянная земля / The legend of Sarila (2013) DVDRip-AVC от Youtracker | лицензия

136 | 10

1.46 ГБ

В этой теме нет новых непрочитанных сообщений. Сарила: Затерянная земля / The legend of Sarila (2013) DVDRip от Youtracker | лицензия

231 | 7

1.46 ГБ

В этой теме нет новых непрочитанных сообщений. Сарила: Затерянная земля / The legend of Sarila (2013) DVD5 R5 от Youtracker | лицензия

15 | 5

3.53 ГБ

В этой теме нет новых непрочитанных сообщений. Сарила: Затерянная земля / The legend of Sarila / La légende de Sarila (2013) DVDRip-AVC [Hi10P] от FREEISLAND

32 | 7

698.18 МБ

В этой теме нет новых непрочитанных сообщений. Сарила: Затерянная земля / The legend of Sarila (2013) DVDRip от Generalfilm | КПК | лицензия

16 | 2

268.61 МБ

В этой теме нет новых непрочитанных сообщений. Сарила: Затерянная земля / The Legend of Sarila (2013) BDRip 720p от HELLYWOOD | Лицензия

193 | 24

2.91 ГБ

В этой теме нет новых непрочитанных сообщений. Сарила: Затерянная земля / The Legend of Sarila (2013) BDRip 1080p от Ash61 | 3D-Video | halfOU

124 | 13

3.65 ГБ




Вы не можете начинать темы
Вы не можете отвечать на сообщения
Вы не можете редактировать свои сообщения
Вы не можете удалять свои сообщения
Вы не можете добавлять вложения

Перейти:  
Для Мосгорсуда, Роскомнадзора и рекламодателей: mosgorsud-torrent[собачка]yandex.ru
 Вход
ppkBB3cker v.2 © 2008-2014 @ PPK
[ Time : 3.359s | 14 Queries | GZIP : Off ]

Торрент трекер RUTOR.IN, Не можете зайти на rutor.org? Какой новый адрес рутор? Какое зеркало рутор? Не работает rutor.org и зеркала? Тогда наш торрент специально для вас. Rutor.in неофициальное зеркало rutor. В случае если у Вас заблокирован rutor или вдруг Вы не можете на него зайти, то Вы без труда сможете скачать бесплатно и без рекламы последние новинки кино, игр, сериалов и прочего у нас, на Rutor.in. Не нужно использовать прокси, чтобы зайти на рутор, достаточно воспользоваться нашим ресурсом. Все новые фильмы, игры, сериалы, книги и музыка за 2013 и 2014 годы через торрент бесплатно. Скачивайте фильмы в хорошем качестве, игры для пк, xbox, playstation без регистрации. У нас вы найдете новые Зарубежные сериалы и Русские сериалы 2013, 2014, 2015 годов. Оставайтесь с нами, качайте любимые фильмы, игры, сериалы, книги и музыку.