img image001 image001 image001 image001 image001 image001 image001 image001 image001 image001 image001 image001 image001 image001 image001

Planets Sun Sun Sun
Статистика раздачи
Автор: Снежана | Размер: 5.76 ГБ | Добавлен: 28 июл 2013
Раздают: 119    Качают: 10
Скачать торрент
Скачать торрент
Описание торрента

СообщениеДобавлено: 28 июл 2013 

Оливер и компания

Oliver & Company

«The first Disney movie with attitude.»




#77
Год выпуска: 1988
Страна: США
Жанр: мультфильм, мюзикл, приключения, семейный
Продолжительность: 01:13:33
Перевод: Профессиональный (дублированный)
Субтитры: Russian (UTF-8), Russian (UTF-8), English (UTF-8)

Режиссер: Джордж Скрибнер
Сценарий: Джим Кокс, Тим Дисней, Джеймс Мэнголд, ...
Продюсер: -
Композитор: Дж. А.С. Редфорд
Художник: Дэн Хансен
Монтаж: Марк А. Хестер, Джеймс Мелтон

В ролях: Джозеф Лоуренс / Joseph Lawrence (в титрах: Joey Lawrence) (Oliver, озвучка), Билли Джоэл / Billy Joel (Dodger, озвучка), Чич Марин / Cheech Marin (Tito, озвучка), Ричард Маллиган / Richard Mulligan (Einstein, озвучка), Роско Ли Браун / Roscoe Lee Browne (Francis, озвучка), Шерил Ли Ральф / Sheryl Lee Ralph (Rita, озвучка), Дом ДеЛуис / Dom DeLuise (Fagin, озвучка), Торин Блак / Taurean Blacque (Roscoe, озвучка), Карл Вентрауб / Carl Weintraub (Desoto, озвучка), Роберт Лоджа / Robert Loggia (Sykes, озвучка)

Описание: Рисованный, цветной, полнометражный мультфильм про котенка Оливера, которого никто не купил. Он остался один на страшных улицах Нью-Йорка и выжил, только благодаря друзьям. Героями этой почти детективной истории будут кошки, собаки и люди, ибо бомж Спайк, в «дыре» которого нашли приют котенок и несколько бездомных собак, задолжал деньги крупному мафиози.Лучшим другом и защитником малыша стал фокстерьер Доджер, большой специалист по краже сосисок. Вместе они должны помочь своему хозяину, иначе им грозит стать «закуской для подлых доберманов» у которых еcть ошейники, но нет совести.

Сборы в США: $74 151 346
Зрители: США 17.9 млн , Франция 2.86 млн , Германия 2.16 млн
Премьера (мир): 13 ноября 1988, ...
Релиз на DVD: 21 августа 2008, «Buena Vista/Walt Disney», ...
Релиз на Blu-Ray: 13 августа 2013, «Уолт Дисней Компани СНГ», ...
Рейтинг MPAA: Нет возрастных ограничений



Качество: BDRip 1080р
Формат: MKV
Видео кодек: AVC
Аудио кодеk: AC3
Видео: 1920x1040 (16:9), 23.976 fps, AVC, 9 803 Kbps

Аудио #1: AC3, 640 Kbps, 48.0 KHz, 6 ch (Дубляж)
Аудио #2: AC3, 384 Kbps, 48.0 KHz, 6 ch (AVO - Ю.Живов)
Аудио #3: AC3, 384 Kbps, 48.0 KHz, 6 ch (English)





Лог :
- x264 [info]: frame I:997 Avg QP:16.70 size:230577
- x264 [info]: frame P:33628 Avg QP:19.17 size: 86405
- x264 [info]: frame B:71173 Avg QP:20.58 size: 31925

General
Complete name : Oliver.i.kompaniya.1988.BDRip.1080p.mkv
Format : Matroska
File size : 5.76 GiB
Duration : 1h 13mn
Overall bit rate : 11.2 Mbps
Encoded date : UTC 2013-07-22 13:41:48
Writing application : mkvmerge v6.1.0 ('Old Devil') built on Mar 2 2013 14:32:37
Writing library : libebml v1.3.0 + libmatroska v1.4.0

Video
ID : 1
Format : AVC
Format/Info : Advanced Video Codec
Format profile : High@L4.1
Format settings, CABAC : Yes
Format settings, ReFrames : 4 frames
Muxing mode : Container profile=Unknown@4.1
Codec ID : V_MPEG4/ISO/AVC
Duration : 1h 13mn
Bit rate : 9 803 Kbps
Width : 1 920 pixels
Height : 1 040 pixels
Display aspect ratio : 16:9
Frame rate : 23.976 fps
Color space : YUV
Chroma subsampling : 4:2:0
Bit depth : 8 bits
Scan type : Progressive
Bits/(Pixel*Frame) : 0.205
Stream size : 4.92 GiB (85%)
Writing library : x264 core 135 r2345 f0c1c53
Encoding settings : cabac=1 / ref=4 / deblock=1:-1:-1 / analyse=0x3:0x133 / me=umh / subme=10 / psy=1 / psy_rd=1.00:0.00 / mixed_ref=1 / me_range=32 / chroma_me=1 / trellis=2 / 8x8dct=1 / cqm=0 / deadzone=21,11 / fast_pskip=0 / chroma_qp_offset=-2 / threads=6 / lookahead_threads=1 / sliced_threads=0 / nr=0 / decimate=1 / interlaced=0 / bluray_compat=0 / constrained_intra=0 / bframes=8 / b_pyramid=2 / b_adapt=2 / b_bias=0 / direct=3 / weightb=1 / open_gop=0 / weightp=2 / keyint=240 / keyint_min=24 / scenecut=40 / intra_refresh=0 / rc_lookahead=50 / rc=2pass / mbtree=0 / bitrate=9803 / ratetol=2.0 / qcomp=1.00 / qpmin=0 / qpmax=50 / qpstep=4 / cplxblur=20.0 / qblur=0.5 / vbv_maxrate=38000 / vbv_bufsize=30000 / nal_hrd=none / ip_ratio=1.40 / pb_ratio=1.30 / aq=1:1.00
Color primaries : BT.709-5, BT.1361, IEC 61966-2-4, SMPTE RP177
Transfer characteristics : BT.709-5, BT.1361
Matrix coefficients : BT.709-5, BT.1361, IEC 61966-2-4 709, SMPTE RP177

Audio #1
ID : 2
Format : AC-3
Format/Info : Audio Coding 3
Mode extension : CM (complete main)
Codec ID : A_AC3
Duration : 1h 13mn
Bit rate mode : Constant
Bit rate : 640 Kbps
Channel(s) : 6 channels
Channel positions : Front: L C R, Side: L R, LFE
Sampling rate : 48.0 KHz
Bit depth : 16 bits
Stream size : 337 MiB (6%)
Title : Дубляж
Language : Russian

Audio #2
ID : 3
Format : AC-3
Format/Info : Audio Coding 3
Mode extension : CM (complete main)
Codec ID : A_AC3
Duration : 1h 13mn
Bit rate mode : Constant
Bit rate : 384 Kbps
Channel(s) : 6 channels
Channel positions : Front: L C R, Side: L R, LFE
Sampling rate : 48.0 KHz
Bit depth : 16 bits
Stream size : 202 MiB (3%)
Title : AVO - Живов
Language : Russian

Audio #3
ID : 4
Format : AC-3
Format/Info : Audio Coding 3
Mode extension : CM (complete main)
Codec ID : A_AC3
Duration : 1h 13mn
Bit rate mode : Constant
Bit rate : 384 Kbps
Channel(s) : 6 channels
Channel positions : Front: L C R, Side: L R, LFE
Sampling rate : 48.0 KHz
Bit depth : 16 bits
Stream size : 202 MiB (3%)

Text #1
ID : 5
Format : UTF-8
Codec ID : S_TEXT/UTF8
Codec ID/Info : UTF-8 Plain Text
Title : - fors -
Language : Russian

Text #2
ID : 6
Format : UTF-8
Codec ID : S_TEXT/UTF8
Codec ID/Info : UTF-8 Plain Text
Title : - poln -
Language : Russian

Text #3
ID : 7
Format : UTF-8
Codec ID : S_TEXT/UTF8
Codec ID/Info : UTF-8 Plain Text

Menu
00:00:00.000 : en:"Once Upon A Time In New York City"
00:04:11.543 : en:Lookin' For Affection
00:06:59.502 : en:One Crafty Canine
00:09:21.186 : en:"Why Should I Worry?"
00:12:51.437 : en:Meeting The Gang
00:15:10.076 : en:A Drop-In Guest
00:18:48.169 : en:Sykes Pays A Visit
00:24:36.016 : en:Story Time
00:27:50.335 : en:"Streets Of Gold"
00:30:30.037 : en:The "Accident"
00:32:31.074 : en:A New Home
00:33:03.106 : en:"Perfect Isn't Easy"
00:36:01.618 : en:Breakfast For Kitty
00:37:58.902 : en:Devising A Plan
00:38:54.332 : en:"Good Company"
00:41:50.425 : en:An Unintentional Catnapping
00:47:55.873 : en:Fagin's Get-Rich Scheme
00:53:25.327 : en:The Payoff
00:56:34.933 : en:Jenny Goes Missing
00:57:20.270 : en:To The Rescue!
01:01:34.357 : en:The Getaway
01:05:07.821 : en:A Very Happy Birthday
01:06:27.066 : en:"Why Should I Worry?" (Reprise)
01:09:24.035 : en:End Credits





Релиз группы:



   Похожие торренты   Торрент   Размер 
В этой теме нет новых непрочитанных сообщений. Оливер и компания / Oliver & Company (1988) BDRip-AVC от HELLYWOOD

131 | 10

1.94 ГБ

В этой теме нет новых непрочитанных сообщений. Оливер и компания / Oliver & Company (1988) BDRip от HQCLUB

285 | 27

1.45 ГБ

В этой теме нет новых непрочитанных сообщений. Оливер и компания / Oliver & Company (1988) BDRip-AVC | iPad | D

147 | 26

1.65 ГБ

В этой теме нет новых непрочитанных сообщений. Оливер и компания / Oliver & Company (1988) DVD9

0 | 2

6.02 ГБ

В этой теме нет новых непрочитанных сообщений. Оливер и компания / Oliver & Company (1988) DVDRip | A

6 | 9

1.08 ГБ

В этой теме нет новых непрочитанных сообщений. Оливер Твист / Oliver Twist (2005) BDRip 1080p

5 | 2

11.21 ГБ

В этой теме нет новых непрочитанных сообщений. Компания негодяев / Badmaash Company (2010) BDRip 1080p от ICG & Generalfilm | L

40 | 10

7.31 ГБ




Вы не можете начинать темы
Вы не можете отвечать на сообщения
Вы не можете редактировать свои сообщения
Вы не можете удалять свои сообщения
Вы не можете добавлять вложения

Перейти:  
Для Мосгорсуда, Роскомнадзора и рекламодателей: mosgorsud-torrent[собачка]yandex.ru
 Вход
ppkBB3cker v.2 © 2008-2014 @ PPK
[ Time : 0.996s | 14 Queries | GZIP : Off ]

Торрент трекер RUTOR.IN, Не можете зайти на rutor.org? Какой новый адрес рутор? Какое зеркало рутор? Не работает rutor.org и зеркала? Тогда наш торрент специально для вас. Rutor.in неофициальное зеркало rutor. В случае если у Вас заблокирован rutor или вдруг Вы не можете на него зайти, то Вы без труда сможете скачать бесплатно и без рекламы последние новинки кино, игр, сериалов и прочего у нас, на Rutor.in. Не нужно использовать прокси, чтобы зайти на рутор, достаточно воспользоваться нашим ресурсом. Все новые фильмы, игры, сериалы, книги и музыка за 2013 и 2014 годы через торрент бесплатно. Скачивайте фильмы в хорошем качестве, игры для пк, xbox, playstation без регистрации. У нас вы найдете новые Зарубежные сериалы и Русские сериалы 2013, 2014, 2015 годов. Оставайтесь с нами, качайте любимые фильмы, игры, сериалы, книги и музыку.