img image001 image001 image001 image001 image001 image001 image001 image001 image001 image001 image001 image001 image001 image001 image001

Planets Sun Sun Sun
Статистика раздачи
Автор: Снежана | Размер: 1.94 ГБ | Добавлен: 27 июл 2013
Раздают: 131    Качают: 10
Скачать торрент
Скачать торрент
Описание торрента

СообщениеДобавлено: 27 июл 2013 

#77

Год выпуска: 1988
Производство: США / Silver Screen Partners III, Walt Disney Feature Animation, Walt Disney Pictures
Жанр: Мультфильм, мюзикл, приключения, семейный
Продолжительность: 01:13:43
Перевод: Профессиональный (полное дублированное)
Субтитры: Английские, русские |отключаемые|


Режиссер: Джордж Скрибнер / George Scribner

В ролях: Джозеф Лоуренс, Билли Джоэл, Чич Марин, Ричард Маллиган, Роско Ли Браун, Шерил Ли Ральф, Дом ДеЛуис, Торин Блак, Карл Вентрауб, Роберт Лоджа

О фильме: Рисованный, цветной, полнометражный мультфильм про котенка Оливера, которого никто не купил. Он остался один на страшных улицах Нью-Йорка и выжил, только благодаря друзьям. Героями этой почти детективной истории будут кошки, собаки и люди, ибо бомж Спайк, в «дыре» которого нашли приют котенок и несколько бездомных собак, задолжал деньги крупному мафиози.
Лучшим другом и защитником малыша стал фокстерьер Доджер, большой специалист по краже сосисок. Вместе они должны помочь своему хозяину, иначе им грозит стать «закуской для подлых доберманов» у которых еcть ошейники, но нет совести.






Качество: BDRip-AVC [OLIVER AND COMPANY]
Формат: MKV
Видео: х.264, 1012x546 (1.85:1), 23.976 fps, 2873 Кbps, 0.217 bit/pixel
Аудио#1: 48 kHz, AC3 Dolby Digital, 3/2 (L,C,R,l,r) + LFE ch, 448.00 kbps | RUS
Аудио#2: 48 kHz, AC3 Dolby Digital, 3/2 (L,C,R,l,r) + LFE ch, 448.00 kbps | ENG


Релиз от:



Общее
Уникальный идентификатор : 175542971805581253238885854015840784579 (0x841058BA4CBF914EBA13008C012310C3)
Полное имя : Oliver.&.Company.1988.RUS.BDRip.x264.-HELLYWOOD.mkv
Формат : Matroska
Версия формата : Version 4 / Version 2
Размер файла : 1,94 Гбайт
Продолжительность : 1 ч. 13 м.
Общий поток : 3764 Кбит/сек
Название фильма : -=POTROKS=-
Дата кодирования : UTC 2013-07-22 17:07:16
Программа кодирования : mkvmerge v5.9.0 ('On The Loose') built on Dec 15 2012 16:39:58
Библиотека кодирования : libebml v1.3.0 + libmatroska v1.4.0

Видео
Идентификатор : 1
Формат : AVC
Формат/Информация : Advanced Video Codec
Профиль формата : High@L4.1
Параметр CABAC формата : Да
Параметр ReFrames формата : 13 кадров
Идентификатор кодека : V_MPEG4/ISO/AVC
Продолжительность : 1 ч. 13 м.
Битрейт : 2873 Кбит/сек
Ширина : 1012 пикселей
Высота : 546 пикселей
Соотношение сторон : 1,85:1
Режим частоты кадров : Постоянный
Частота кадров : 23,976 кадра/сек
Цветовое пространство : YUV
Субдискретизация насыщенности : 4:2:0
Битовая глубина : 8 бит
Тип развёртки : Прогрессивная
Бит/(Пиксели*Кадры) : 0.217
Размер потока : 1,44 Гбайт (74%)
Заголовок : Oliver & Company
Библиотека кодирования : x264 core 130 r2273 b3065e6
Настройки программы : cabac=1 / ref=13 / deblock=1:-1:-1 / analyse=0x3:0x133 / me=umh / subme=11 / psy=1 / psy_rd=1.05:0.01 / mixed_ref=1 / me_range=32 / chroma_me=1 / trellis=2 / 8x8dct=1 / cqm=0 / deadzone=21,11 / fast_pskip=0 / chroma_qp_offset=-3 / threads=9 / lookahead_threads=2 / sliced_threads=0 / nr=0 / decimate=1 / interlaced=0 / bluray_compat=0 / constrained_intra=0 / bframes=13 / b_pyramid=2 / b_adapt=2 / b_bias=0 / direct=3 / weightb=1 / open_gop=0 / weightp=2 / keyint=250 / keyint_min=23 / scenecut=40 / intra_refresh=0 / rc_lookahead=150 / rc=2pass / mbtree=1 / bitrate=2873 / ratetol=1.0 / qcomp=0.70 / qpmin=0 / qpmax=69 / qpstep=4 / cplxblur=20.0 / qblur=0.5 / vbv_maxrate=20000 / vbv_bufsize=25000 / nal_hrd=none / ip_ratio=1.35 / aq=1:0.80
Язык : English
Default : Да
Forced : Нет

Аудио #1
Идентификатор : 2
Формат : AC-3
Формат/Информация : Audio Coding 3
Расширение режима : CM (complete main)
Параметр Endianness формата : Big
Идентификатор кодека : A_AC3
Продолжительность : 1 ч. 13 м.
Вид битрейта : Постоянный
Битрейт : 448 Кбит/сек
Каналы : 6 каналов
Расположение каналов : Front: L C R, Side: L R, LFE
Частота : 48,0 КГц
Битовая глубина : 16 бит
Метод сжатия : С потерями
Размер потока : 236 Мбайт (12%)
Заголовок : Dub | DD 5.1 @ 448 kbps
Язык : Russian
Default : Да
Forced : Да

Аудио #2
Идентификатор : 3
Формат : AC-3
Формат/Информация : Audio Coding 3
Расширение режима : CM (complete main)
Параметр Endianness формата : Big
Идентификатор кодека : A_AC3
Продолжительность : 1 ч. 13 м.
Вид битрейта : Постоянный
Битрейт : 448 Кбит/сек
Каналы : 6 каналов
Расположение каналов : Front: L C R, Side: L R, LFE
Частота : 48,0 КГц
Битовая глубина : 16 бит
Метод сжатия : С потерями
Размер потока : 236 Мбайт (12%)
Заголовок : Original | DD 5.1 @ 448 kbps
Язык : English
Default : Нет
Forced : Нет

Текст #1
Идентификатор : 4
Формат : UTF-8
Идентификатор кодека : S_TEXT/UTF8
Идентификатор кодека/Информация : UTF-8 Plain Text
Заголовок : Full
Язык : English
Default : Нет
Forced : Нет

Текст #2
Идентификатор : 5
Формат : UTF-8
Идентификатор кодека : S_TEXT/UTF8
Идентификатор кодека/Информация : UTF-8 Plain Text
Заголовок : Full
Язык : Russian
Default : Нет
Forced : Нет
x264 [info]: frame I:961 Avg QP:16.53 size:103885
x264 [info]: frame P:29540 Avg QP:19.81 size: 28500
x264 [info]: frame B:75296 Avg QP:22.30 size: 8540
x264 [info]: consecutive B-frames: 5.0% 5.5% 15.9% 36.2% 23.3% 8.0% 2.3% 1.0% 0.8% 0.5% 0.2% 0.4% 0.5% 0.3%
x264 [info]: mb I I16..4: 3.5% 58.5% 38.0%
x264 [info]: mb P I16..4: 0.5% 4.0% 3.3% P16..4: 33.4% 37.3% 14.6% 3.4% 0.6% skip: 2.9%
x264 [info]: mb B I16..4: 0.1% 0.4% 0.5% B16..8: 36.6% 20.3% 3.7% direct: 3.6% skip:34.7% L0:45.9% L1:45.2% BI: 8.9%
x264 [info]: 8x8 transform intra:51.4% inter:52.7%
x264 [info]: direct mvs spatial:97.8% temporal:2.2%
x264 [info]: coded y,uvDC,uvAC intra: 84.0% 89.0% 70.8% inter: 20.7% 22.3% 7.3%
x264 [info]: i16 v,h,dc,p: 23% 24% 5% 48%
x264 [info]: i8 v,h,dc,ddl,ddr,vr,hd,vl,hu: 13% 11% 7% 10% 12% 11% 12% 11% 14%
x264 [info]: i4 v,h,dc,ddl,ddr,vr,hd,vl,hu: 18% 14% 5% 9% 12% 10% 11% 9% 12%
x264 [info]: i8c dc,h,v,p: 38% 29% 21% 12%
x264 [info]: Weighted P-Frames: Y:4.4% UV:1.7%
x264 [info]: ref P L0: 44.2% 10.5% 17.6% 6.4% 5.2% 3.7% 3.4% 1.7% 1.7% 1.4% 1.3% 1.2% 1.2% 0.4% 0.0%
x264 [info]: ref B L0: 61.5% 16.0% 8.0% 3.9% 2.8% 2.3% 1.8% 1.1% 0.9% 0.9% 0.6% 0.3%
x264 [info]: ref B L1: 89.2% 10.8%
x264 [info]: kb/s:2873.11

x264 [total]: encoded 105797 frames, 4.72 fps, 2873.11 kb/s
TIME
------------------------------
Общее время кодирования: 7 hour 29 min 44 sec
Файл получился на: 1512.10 mb




   Похожие торренты   Торрент   Размер 
В этой теме нет новых непрочитанных сообщений. Оливер и компания / Oliver & Company (1988) BDRip от HQCLUB

285 | 27

1.45 ГБ

В этой теме нет новых непрочитанных сообщений. Оливер и компания / Oliver & Company (1988) BDRip-AVC | iPad | D

147 | 26

1.65 ГБ

В этой теме нет новых непрочитанных сообщений. Оливер и компания / Oliver & Company (1988) BDRip 1080p от Freeisland

119 | 10

5.76 ГБ

В этой теме нет новых непрочитанных сообщений. Оливер и компания / Oliver & Company (1988) DVD9

0 | 2

6.02 ГБ

В этой теме нет новых непрочитанных сообщений. Оливер и компания / Oliver & Company (1988) DVDRip | A

6 | 9

1.08 ГБ

В этой теме нет новых непрочитанных сообщений. Оливер Твист / Oliver Twist (2005) BDRip

106 | 4

1.46 ГБ

В этой теме нет новых непрочитанных сообщений. Оливер Твист / Oliver Twist (2005) BDRip от Rulya74

9 | 1

2.18 ГБ




Вы не можете начинать темы
Вы не можете отвечать на сообщения
Вы не можете редактировать свои сообщения
Вы не можете удалять свои сообщения
Вы не можете добавлять вложения

Перейти:  
Для Мосгорсуда, Роскомнадзора и рекламодателей: mosgorsud-torrent[собачка]yandex.ru
 Вход
ppkBB3cker v.2 © 2008-2014 @ PPK
[ Time : 0.046s | 14 Queries | GZIP : Off ]

Торрент трекер RUTOR.IN, Не можете зайти на rutor.org? Какой новый адрес рутор? Какое зеркало рутор? Не работает rutor.org и зеркала? Тогда наш торрент специально для вас. Rutor.in неофициальное зеркало rutor. В случае если у Вас заблокирован rutor или вдруг Вы не можете на него зайти, то Вы без труда сможете скачать бесплатно и без рекламы последние новинки кино, игр, сериалов и прочего у нас, на Rutor.in. Не нужно использовать прокси, чтобы зайти на рутор, достаточно воспользоваться нашим ресурсом. Все новые фильмы, игры, сериалы, книги и музыка за 2013 и 2014 годы через торрент бесплатно. Скачивайте фильмы в хорошем качестве, игры для пк, xbox, playstation без регистрации. У нас вы найдете новые Зарубежные сериалы и Русские сериалы 2013, 2014, 2015 годов. Оставайтесь с нами, качайте любимые фильмы, игры, сериалы, книги и музыку.