img image001 image001 image001 image001 image001 image001 image001 image001 image001 image001 image001 image001 image001 image001 image001 image001

Planets Sun Sun Sun
Статистика раздачи
Автор: Снежана | Размер: 2.18 ГБ | Добавлен: 27 июл 2013
Раздают: 303    Качают: 10
Скачать торрент
Скачать торрент
Описание торрента

СообщениеДобавлено: 27 июл 2013 

Трансформеры / The Transformers: The Movie



Страна: США, Япония
Жанр: мультфильм, фантастика, боевик, приключения, семейный
Год выпуска: 1986
Продолжительность: 01:25:00
Перевод:
Многоголосый (закадровый) [RG Evolution]
Профессиональный (дублированный) [Украинский]
Субтитры: русские, украинские, английские
Оригинальная дорожка: английский

Режиссер: Нельсон Шин / Nelson Shin
Роли озвучивали: Норман Элден, Джек Эйнджел, Майкл Белл, Грегг Бергер, Сьюзэн Блу, Артур Бергхардт, Кори Бертон, Роджер С. Кармел, Вик Кароли, Регис Кордик


Описание: Автоботы и Десептиконы продолжают войну за контроль над территорией в 2005 году. Войска Мегатрона завоевали Кибертрон, но Автоботы готовы это изменить. В масштабном конфликте старые герои падут и новые восстанут, в то время как планета — демон Юникрон будет приближаться к их родному миру…


Сэмпл


Качество видео: BDRip-AVC (энкод L)
Формат видео: MKV

Видео: AVC / High@L4.1 / 960 x 540 / 3 069 Kbps / 16:9
Аудио:
Russian: 44.1 kHz, AC3 Dolby Digital, 2.0 ch, ~192 kbps
Ukrainian: 48 kHz, AC3 Dolby Digital, 2.0 ch, ~192 kbps
English: 48 kHz, AC3 Dolby Digital, 2.0 ch, ~192 kbps ~224 kbps
Формат субтитров: softsub (SRT)

Раздача от






TRANSFORMERS - The Movie (1986) BD-Remux

Общее
Уникальный идентификатор : 192738142941988210562978615350233904402 (0x9100041E96DED0C892D85BED9F37B512)
Полное имя : D:25KadrTransformery.1986.Bluray.x264.ac3.rus.ukr.eng.by.L.mkv
Формат : Matroska
Версия формата : Version 2
Размер файла : 2,18 Гбайт
Продолжительность : 1 ч. 25 м.
Общий поток : 3678 Кбит/сек
Название фильма : Трансформеры / Transformers - The Movie [1986 г.] | Рип от L | Unionpeer
Дата кодирования : UTC 2013-07-23 06:00:44
Программа кодирования : mkvmerge v3.2.0 (''Beginnings'') built on Feb 12 2010 16:46:17
Библиотека кодирования : libebml v0.7.9 + libmatroska v0.8.1

Видео
Идентификатор : 1
Формат : AVC
Формат/Информация : Advanced Video Codec
Профиль формата : High@L4.1
Параметр CABAC формата : Да
Параметр ReFrames формата : 11 кадров
Идентификатор кодека : V_MPEG4/ISO/AVC
Продолжительность : 1 ч. 25 м.
Битрейт : 3069 Кбит/сек
Ширина : 960 пикселей
Высота : 540 пикселей
Соотношение сторон : 16:9
Режим частоты кадров : Постоянный
Частота кадров : 23,976 кадра/сек
Цветовое пространство : YUV
Субдискретизация насыщенности : 4:2:0
Битовая глубина : 8 бит
Тип развёртки : Прогрессивная
Бит/(Пиксели*Кадры) : 0.247
Размер потока : 1,78 Гбайт (81%)
Библиотека кодирования : x264 core 133 r2334 a3ac64b
Настройки программы : cabac=1 / ref=11 / deblock=1:-3:-2 / analyse=0x3:0x133 / me=umh / subme=11 / psy=1 / psy_rd=1.10:0.10 / mixed_ref=1 / me_range=32 / chroma_me=1 / trellis=2 / 8x8dct=1 / cqm=0 / deadzone=21,11 / fast_pskip=0 / chroma_qp_offset=-4 / threads=6 / lookahead_threads=1 / sliced_threads=0 / nr=0 / decimate=1 / interlaced=0 / bluray_compat=0 / constrained_intra=0 / bframes=10 / b_pyramid=2 / b_adapt=2 / b_bias=0 / direct=3 / weightb=1 / open_gop=0 / weightp=2 / keyint=230 / keyint_min=21 / scenecut=40 / intra_refresh=0 / rc_lookahead=0 / rc=2pass / mbtree=0 / bitrate=3069 / ratetol=1.0 / qcomp=0.70 / qpmin=0 / qpmax=69 / qpstep=4 / cplxblur=20.0 / qblur=0.5 / vbv_maxrate=50000 / vbv_bufsize=62500 / nal_hrd=none / ip_ratio=1.35 / pb_ratio=1.25 / aq=2:0.90
Язык : English
Default : Нет
Forced : Нет

Аудио #1
Идентификатор : 2
Формат : AC-3
Формат/Информация : Audio Coding 3
Расширение режима : CM (complete main)
Параметр Endianness формата : Big
Идентификатор кодека : A_AC3
Продолжительность : 1 ч. 25 м.
Вид битрейта : Постоянный
Битрейт : 192 Кбит/сек
Каналы : 2 канала
Расположение каналов : Front: L R
Частота : 44,1 КГц
Битовая глубина : 16 бит
Метод сжатия : С потерями
Размер потока : 117 Мбайт (5%)
Заголовок : Многоголосый
Язык : Russian
Default : Да
Forced : Нет

Аудио #2
Идентификатор : 3
Формат : AC-3
Формат/Информация : Audio Coding 3
Профиль формата : Dolby Digital
Расширение режима : CM (complete main)
Параметр Endianness формата : Big
Идентификатор кодека : A_AC3
Продолжительность : 1 ч. 25 м.
Вид битрейта : Постоянный
Битрейт : 192 Кбит/сек
Каналы : 2 канала
Расположение каналов : Front: L R
Частота : 48,0 КГц
Битовая глубина : 16 бит
Метод сжатия : С потерями
Размер потока : 117 Мбайт (5%)
Заголовок : Дубляж
Язык : Ukrainian
Default : Нет
Forced : Нет

Аудио #3
Идентификатор : 4
Формат : AC-3
Формат/Информация : Audio Coding 3
Расширение режима : CM (complete main)
Параметр Endianness формата : Big
Идентификатор кодека : A_AC3
Продолжительность : 1 ч. 25 м.
Вид битрейта : Постоянный
Битрейт : 224 Кбит/сек
Каналы : 2 канала
Расположение каналов : Front: L R
Частота : 48,0 КГц
Битовая глубина : 16 бит
Метод сжатия : С потерями
Размер потока : 136 Мбайт (6%)
Заголовок : Оригинал
Язык : English
Default : Нет
Forced : Нет

Текст #1
Идентификатор : 5
Формат : UTF-8
Идентификатор кодека : S_TEXT/UTF8
Идентификатор кодека/Информация : UTF-8 Plain Text
Язык : Russian
Default : Да
Forced : Нет

Текст #2
Идентификатор : 6
Формат : UTF-8
Идентификатор кодека : S_TEXT/UTF8
Идентификатор кодека/Информация : UTF-8 Plain Text
Язык : Ukrainian
Default : Нет
Forced : Нет

Текст #3
Идентификатор : 7
Формат : UTF-8
Идентификатор кодека : S_TEXT/UTF8
Идентификатор кодека/Информация : UTF-8 Plain Text
Язык : English
Default : Нет
Forced : Нет



   Похожие торренты   Торрент   Размер 
В этой теме нет новых непрочитанных сообщений. Трансформеры / The Transformers: The Movie (1986) BDRip от Koenig | L, A

10 | 1

1.45 ГБ

В этой теме нет новых непрочитанных сообщений. Трансформеры: Фильм / The Transformers: The Movie (1986) BDRip От Azazel | L

137 | 9

2.55 ГБ

В этой теме нет новых непрочитанных сообщений. Трансформеры: Фильм / Transformers: The Movie (1986) BDRip 1080p от NNNB

25 | 9

7.75 ГБ

В этой теме нет новых непрочитанных сообщений. Трансформеры: Скрытые роботы / Трансформеры: Роботы в маскировке / Transformers: Robots in Disguise [01x01-02] (2015) WEB-DLRip | L

269 | 16

567.39 МБ

В этой теме нет новых непрочитанных сообщений. Трансформеры: Скрытые роботы / Трансформеры: Роботы в маскировке / Transformers: Robots in Disguise [01x01-02] (2015) WEB-DL 720p | L, L1

130 | 81

1.56 ГБ

В этой теме нет новых непрочитанных сообщений. Трансформеры: Скрытые роботы / Трансформеры: Роботы в маскировке / Transformers: Robots in Disguise [01x01-02] (2015) WEB-DL 1080p | L, L1

151 | 18

1.91 ГБ

В этой теме нет новых непрочитанных сообщений. Трансформеры: Скрытые роботы / Трансформеры: роботы в маскировке / Transformers: Robots in Disguise [01x01 из 26] (2015) WEB-DL 720p | L

139 | 67

784.62 МБ




Вы не можете начинать темы
Вы не можете отвечать на сообщения
Вы не можете редактировать свои сообщения
Вы не можете удалять свои сообщения
Вы не можете добавлять вложения

Перейти:  
 Вход
ppkBB3cker v.2 © 2008-2014 @ PPK
[ Time : 0.041s | 17 Queries | GZIP : Off ]

cron