img image001 image001 image001 image001 image001 image001 image001 image001 image001 image001 image001 image001 image001 image001 image001

Planets Sun Sun Sun
Статистика раздачи
Автор: Снежана | Размер: 5.76 ГБ | Добавлен: 27 июл 2013
Раздают: 87    Качают: 8
Скачать торрент
Скачать торрент
Описание торрента

СообщениеДобавлено: 27 июл 2013 

Робин Гуд

Robin Hood

«The way it REALLY happened...»




#77
Год выпуска: 1973
Страна: США
Жанр: мультфильм, мелодрама, комедия, приключения, семейный
Продолжительность: 01:23:02
Перевод: Профессиональный (дублированный)
Субтитры: Russian (UTF-8), English (UTF-8)

Режиссер: Вольфганг Райтерман
Сценарий: Ларри Клеммонс, Кен Андерсон
Продюсер: Вольфганг Райтерман
Композитор: Джордж Брунс
Художник: Дон Гриффит
Монтаж: Том Акоста, Джеймс Мелтон

В ролях: Роджер Миллер / Roger Miller (The Rooster, озвучка), Питер Устинов / Peter Ustinov (Prince John - a Lion, озвучка), Терри-Томас / Terry-Thomas (Sir Hiss - a Snake, озвучка), Брайан Бедфорд / Brian Bedford (Robin Hood - a Fox, озвучка), Моника Эванс / Monica Evans (Maid Marian - a Vixen, озвучка), Фил Харрис / Phil Harris (Little John - a Bear, озвучка), Энди Дивайн / Andy Devine (Friar Tuck - a Badger, озвучка), Кэрол Шелли / Carole Shelley (Lady Kluck - a Chicken, озвучка), Пэт Баттрем / Pat Buttram (Sheriff of Nottingham - a Wolf, озвучка), Джордж Линдси / George Lindsey (Trigger - a Vulture, озвучка)

Описание: Добро пожаловать в дремучий Шервудский лес, где ты встретишь храброго и забавного лисенка по имени Робин Гуд и его лучшего друга Крошку Джона — большого добродушного медведя.Эту веселую компанию давно разыскивает шериф Нотингема. Он готовит друзьям ловушку: на турнире лучников Робин Гуда будет ждать засада. Но отважный лисенок все равно собирается участвовать в состязании: ведь только там у него есть шанс увидеть красавицу Мариан.И вот турнир начался, однако шериф никак не может узнать среди участников переодетого Робин Гуда. Правда, один точный выстрел способен сразу выдать самого лучшего стрелка в королевстве.


Бюджет: $15 000 000
Сборы в США: $32 056 467
Зрители: Франция 6.47 млн , Германия 6.05 млн
Премьера (мир): 8 ноября 1973, ...
Релиз на DVD: 3 августа 2009, «CP-Digital», ...
Релиз на Blu-Ray: 4 ноября 2014, «Уолт Дисней Компани СНГ», ...
Рейтинг MPAA: Нет возрастных ограничений




Качество: BDRip 1080р
Формат: MKV
Видео кодек: AVC
Аудио кодеk: AC3
Видео: 1800x1080 (1.667:1), 23.976 fps, AVC, 7 943 Kbps

Аудио #1: AC3, 384 Kbps, 48.0 KHz, 6 ch (MVO - Карусель)
Аудио #2: AC3, 192 Kbps, 48.0 KHz, 2 ch (Дубляж)
Аудио #3: AC3, 256 Kbps, 48.0 KHz, 2 ch (MVO)
Аудио #4: AC3, 192 Kbps, 48.0 KHz, 2 ch (AVO - Михалев ранний)
Аудио #5: AC3, 384 Kbps, 48.0 KHz, 6 ch (AVO - Михалев поздний)
Аудио #6: AC3, 192 Kbps, 48.0 KHz, 2 ch (AVO - Володарский)
Аудио #7: AC3, 384 Kbps, 48.0 KHz, 6 ch (English)





General
Complete name : Robin.Gyd.1973.BDRip.180p.mkv
Format : Matroska
File size : 5.76 GiB
Duration : 1h 23mn
Overall bit rate : 9 930 Kbps
Encoded date : UTC 2013-07-25 03:25:31
Writing application : mkvmerge v6.1.0 ('Old Devil') built on Mar 2 2013 14:32:37
Writing library : libebml v1.3.0 + libmatroska v1.4.0

Video
ID : 1
Format : AVC
Format/Info : Advanced Video Codec
Format profile : High@L4.1
Format settings, CABAC : Yes
Format settings, ReFrames : 4 frames
Format settings, GOP : N=15
Muxing mode : Container profile=Unknown@4.1
Codec ID : V_MPEG4/ISO/AVC
Duration : 1h 23mn
Bit rate : 7 943 Kbps
Width : 1 800 pixels
Height : 1 080 pixels
Display aspect ratio : 1.667
Frame rate : 23.976 fps
Color space : YUV
Chroma subsampling : 4:2:0
Bit depth : 8 bits
Scan type : Progressive
Bits/(Pixel*Frame) : 0.170
Stream size : 4.49 GiB (78%)
Writing library : x264 core 135 r2345 f0c1c53
Encoding settings : cabac=1 / ref=4 / deblock=1:-1:-1 / analyse=0x3:0x133 / me=umh / subme=10 / psy=1 / psy_rd=1.00:0.00 / mixed_ref=1 / me_range=32 / chroma_me=1 / trellis=2 / 8x8dct=1 / cqm=0 / deadzone=21,11 / fast_pskip=0 / chroma_qp_offset=-2 / threads=6 / lookahead_threads=1 / sliced_threads=0 / nr=0 / decimate=1 / interlaced=0 / bluray_compat=0 / constrained_intra=0 / bframes=8 / b_pyramid=2 / b_adapt=2 / b_bias=0 / direct=3 / weightb=1 / open_gop=0 / weightp=2 / keyint=240 / keyint_min=24 / scenecut=40 / intra_refresh=0 / rc_lookahead=50 / rc=2pass / mbtree=0 / bitrate=7943 / ratetol=2.0 / qcomp=1.00 / qpmin=0 / qpmax=50 / qpstep=4 / cplxblur=20.0 / qblur=0.5 / vbv_maxrate=50000 / vbv_bufsize=50000 / nal_hrd=none / ip_ratio=1.40 / pb_ratio=1.30 / aq=1:1.00
Color primaries : BT.709-5, BT.1361, IEC 61966-2-4, SMPTE RP177
Transfer characteristics : BT.709-5, BT.1361
Matrix coefficients : BT.709-5, BT.1361, IEC 61966-2-4 709, SMPTE RP177

Audio #1
ID : 2
Format : AC-3
Format/Info : Audio Coding 3
Mode extension : CM (complete main)
Codec ID : A_AC3
Duration : 1h 23mn
Bit rate mode : Constant
Bit rate : 384 Kbps
Channel(s) : 6 channels
Channel positions : Front: L C R, Side: L R, LFE
Sampling rate : 48.0 KHz
Bit depth : 16 bits
Stream size : 228 MiB (4%)
Title : MVO - Карусель
Language : Russian

Audio #2
ID : 3
Format : AC-3
Format/Info : Audio Coding 3
Mode extension : CM (complete main)
Codec ID : A_AC3
Duration : 1h 23mn
Bit rate mode : Constant
Bit rate : 192 Kbps
Channel(s) : 2 channels
Channel positions : Front: L R
Sampling rate : 48.0 KHz
Bit depth : 16 bits
Stream size : 114 MiB (2%)
Title : Дубляж
Language : Russian

Audio #3
ID : 4
Format : AC-3
Format/Info : Audio Coding 3
Mode extension : CM (complete main)
Codec ID : A_AC3
Duration : 1h 23mn
Bit rate mode : Constant
Bit rate : 256 Kbps
Channel(s) : 2 channels
Channel positions : Front: L R
Sampling rate : 48.0 KHz
Bit depth : 16 bits
Stream size : 152 MiB (3%)
Title : MVO
Language : Russian

Audio #4
ID : 5
Format : AC-3
Format/Info : Audio Coding 3
Mode extension : CM (complete main)
Codec ID : A_AC3
Duration : 1h 23mn
Bit rate mode : Constant
Bit rate : 192 Kbps
Channel(s) : 2 channels
Channel positions : Front: L R
Sampling rate : 48.0 KHz
Bit depth : 16 bits
Stream size : 114 MiB (2%)
Title : AVO - Михалев ранний
Language : Russian

Audio #5
ID : 6
Format : AC-3
Format/Info : Audio Coding 3
Mode extension : CM (complete main)
Codec ID : A_AC3
Duration : 1h 23mn
Bit rate mode : Constant
Bit rate : 384 Kbps
Channel(s) : 6 channels
Channel positions : Front: L C R, Side: L R, LFE
Sampling rate : 48.0 KHz
Bit depth : 16 bits
Stream size : 228 MiB (4%)
Title : AVO - Михалев поздний
Language : Russian

Audio #6
ID : 7
Format : AC-3
Format/Info : Audio Coding 3
Mode extension : CM (complete main)
Codec ID : A_AC3
Duration : 1h 23mn
Bit rate mode : Constant
Bit rate : 192 Kbps
Channel(s) : 2 channels
Channel positions : Front: L R
Sampling rate : 48.0 KHz
Bit depth : 16 bits
Stream size : 114 MiB (2%)
Title : AVO - Володарский
Language : Russian

Audio #7
ID : 8
Format : AC-3
Format/Info : Audio Coding 3
Mode extension : CM (complete main)
Codec ID : A_AC3
Duration : 1h 23mn
Bit rate mode : Constant
Bit rate : 384 Kbps
Channel(s) : 6 channels
Channel positions : Front: L C R, Side: L R, LFE
Sampling rate : 48.0 KHz
Bit depth : 16 bits
Stream size : 228 MiB (4%)

Text #1
ID : 9
Format : UTF-8
Codec ID : S_TEXT/UTF8
Codec ID/Info : UTF-8 Plain Text
Language : Russian

Text #2
ID : 10
Format : UTF-8
Codec ID : S_TEXT/UTF8
Codec ID/Info : UTF-8 Plain Text

Menu
00:00:00.000 : en:00:00:00.000
00:03:31.962 : en:00:03:31.962
00:09:10.133 : en:00:09:10.133
00:15:09.617 : en:00:15:09.617
00:20:57.089 : en:00:20:57.089
00:27:01.537 : en:00:27:01.537
00:31:22.172 : en:00:31:22.172
00:37:40.049 : en:00:37:40.049
00:42:00.351 : en:00:42:00.351
00:48:57.643 : en:00:48:57.643
00:51:08.983 : en:00:51:08.983
00:55:10.432 : en:00:55:10.432
01:03:05.198 : en:01:03:05.198
01:05:22.001 : en:01:05:22.001
01:20:30.743 : en:01:20:30.743





Релиз группы:



   Похожие торренты   Торрент   Размер 
В этой теме нет новых непрочитанных сообщений. Приключения Робин Гуда / The Adventures of Robin Hood (1938) BDRip 1080p от Freeisland

2 | 8

7.96 ГБ

В этой теме нет новых непрочитанных сообщений. Робин Гуд / Robin Hood (2010) BDRip 1080p от FREEISLAND | Режиссёрская версия / Director's cut

183 | 20

4.37 ГБ

В этой теме нет новых непрочитанных сообщений. Робин Гуд - принц воров + Робин Гуд / Robin Hood: Prince of Thieves + Robin Hood (1991-2010) BDRip720p

1 | 4

13.24 ГБ

В этой теме нет новых непрочитанных сообщений. Робин Гуд: Принц воров / Robin Hood: Prince of Thieves (1991) BDRip 1080p от Freeisland | Extended Version

13 | 5

11.49 ГБ

В этой теме нет новых непрочитанных сообщений. Робин Гуд / Robin Hood (1973) BDRip от HQCLUB

1115 | 75

1.46 ГБ

В этой теме нет новых непрочитанных сообщений. Робин Гуд / Robin Hood (1973) BDRip-AVC от 0ptimus | D, P, A

56 | 8

2.82 ГБ

В этой теме нет новых непрочитанных сообщений. Робин Гуд / Robin Hood (1973) BDRip | дополнительные материалы

1 | 1

923.49 МБ




Вы не можете начинать темы
Вы не можете отвечать на сообщения
Вы не можете редактировать свои сообщения
Вы не можете удалять свои сообщения
Вы не можете добавлять вложения

Перейти:  
Для Мосгорсуда, Роскомнадзора и рекламодателей: mosgorsud-torrent[собачка]yandex.ru
 Вход
ppkBB3cker v.2 © 2008-2014 @ PPK
[ Time : 1.162s | 14 Queries | GZIP : On ]

Торрент трекер RUTOR.IN, Не можете зайти на rutor.org? Какой новый адрес рутор? Какое зеркало рутор? Не работает rutor.org и зеркала? Тогда наш торрент специально для вас. Rutor.in неофициальное зеркало rutor. В случае если у Вас заблокирован rutor или вдруг Вы не можете на него зайти, то Вы без труда сможете скачать бесплатно и без рекламы последние новинки кино, игр, сериалов и прочего у нас, на Rutor.in. Не нужно использовать прокси, чтобы зайти на рутор, достаточно воспользоваться нашим ресурсом. Все новые фильмы, игры, сериалы, книги и музыка за 2013 и 2014 годы через торрент бесплатно. Скачивайте фильмы в хорошем качестве, игры для пк, xbox, playstation без регистрации. У нас вы найдете новые Зарубежные сериалы и Русские сериалы 2013, 2014, 2015 годов. Оставайтесь с нами, качайте любимые фильмы, игры, сериалы, книги и музыку.