img image001 image001 image001 image001 image001 image001 image001 image001 image001 image001 image001 image001 image001 image001 image001

Planets Sun Sun Sun
Статистика раздачи
Автор: Снежана | Размер: 621.31 МБ | Добавлен: 27 июл 2013
Раздают: 19    Качают: 8
Скачать торрент
Скачать торрент
Описание торрента

СообщениеДобавлено: 27 июл 2013 

#77

Информация о фильме
Название: Расплющенный космос: Полный метр
Оригинальное название: Tripping the Rift: The Movie
Год выхода: 2008
Жанр: мультфильм, фантастика, комедия
Режиссер: Берни Денк
В ролях: Гэйл Гарфинкл, Рик Джонс, Морис ЛаМарш, Дженни МакКарти, Стивен Рут и др.

О фильме:
То, что начинается для Шока и команды корабля Юпитер-42 как рутинная миссия по защите взбешенной принцессы, вскоре становится пошлой сагой о расчлененной королевской особе, неуязвимом клоуне-убийце и похотливой домохозяйке. Что же такое страшное совершил Шок, чтобы вызвать на свою голову гнев Бобо?
Страна: Канада
Студия: Anchor Bay Entertainment
Продолжительность: 01:14:58
Перевод: Любительский (двухголосый закадровый)



Файл
Кодек: H264 (AVC)
Качество: DVDRip | КПК | L2
Видео: AVC, 640x352 (16:9), 29.970 fps, 1 022 Kbps (0.151 bit/pixel)
Звук: AAC LC, 48.0 KHz, 2 ch, 128 Kbps, CBR (Russian)
Субтитры: Отсутствуют

Семпл

Код:
General
Complete name                            : Расплющенный космос Полный метр 640.mp4
Format                                   : MPEG-4
Format profile                           : Base Media
Codec ID                                 : isom
File size                                : 621 MiB
Duration                                 : 1h 14mn
Overall bit rate                         : 1 159 Kbps
Writing application                      : XviD4PSP 6.0 / 54.29.105

Video
ID                                       : 1
Format                                   : AVC
Format/Info                              : Advanced Video Codec
Format profile                           : Main@L4.1
Format settings, CABAC                   : Yes
Format settings, ReFrames                : 3 frames
Codec ID                                 : avc1
Codec ID/Info                            : Advanced Video Coding
Duration                                 : 1h 14mn
Bit rate                                 : 1 022 Kbps
Width                                    : 640 pixels
Height                                   : 352 pixels
Display aspect ratio                     : 16:9
Frame rate mode                          : Constant
Frame rate                               : 29.970 fps
Color space                              : YUV
Chroma subsampling                       : 4:2:0
Bit depth                                : 8 bits
Scan type                                : Progressive
Bits/(Pixel*Frame)                       : 0.151
Stream size                              : 548 MiB (88%)
Writing library                          : x264 core 128 r2216M 198a7ea
Encoding settings                        : cabac=1 / ref=3 / deblock=1:0:0 / analyse=0x1:0x131 / me=hex / subme=7 / psy=1 / psy_rd=1.00:0.20 / mixed_ref=1 / me_range=16 / chroma_me=1 / trellis=1 / 8x8dct=0 / cqm=0 / deadzone=21,11 / fast_pskip=1 / chroma_qp_offset=-3 / threads=8 / lookahead_threads=1 / sliced_threads=0 / nr=0 / decimate=1 / interlaced=0 / bluray_compat=0 / constrained_intra=0 / bframes=3 / b_pyramid=0 / b_adapt=2 / b_bias=0 / direct=3 / weightb=1 / open_gop=0 / weightp=0 / keyint=290 / keyint_min=29 / scenecut=40 / intra_refresh=0 / rc_lookahead=40 / rc=crf / mbtree=1 / crf=20.0 / qcomp=0.60 / qpmin=10 / qpmax=51 / qpstep=4 / vbv_maxrate=5000 / vbv_bufsize=1835 / crf_max=30.0 / nal_hrd=none / ip_ratio=1.40 / aq=1:1.00

Audio
ID                                       : 2
Format                                   : AAC
Format/Info                              : Advanced Audio Codec
Format profile                           : LC
Codec ID                                 : 40
Duration                                 : 1h 14mn
Bit rate mode                            : Constant
Bit rate                                 : 128 Kbps
Channel(s)                               : 2 channels
Channel positions                        : Front: L R
Sampling rate                            : 48.0 KHz
Compression mode                         : Lossy
Delay relative to video                  : 33ms
Stream size                              : 68.6 MiB (11%)
Language                                 : Russian



Релиз от:



   Похожие торренты   Торрент   Размер 
В этой теме нет новых непрочитанных сообщений. Расплющенный космос / Улётный трип / Tripping the Rift [S01] (2004) DVDRip от New-Team | P2 | Лицензия

68 | 7

4.36 ГБ

В этой теме нет новых непрочитанных сообщений. Расплющенный космос / Улётный трип / Tripping the Rift [S1] (2004) 2xDVD5 от New-Team | P2 | Лицензия

1 | 5

8.48 ГБ

В этой теме нет новых непрочитанных сообщений. Улётный трип / Tripping the Rift [S1] (2004) DVDRip

18 | 2

2.48 ГБ

В этой теме нет новых непрочитанных сообщений. Улётный трип / Tripping the Rift [S2] (2005) DVDRip

4 | 6

2.48 ГБ

В этой теме нет новых непрочитанных сообщений. Улётный трип / Tripping the Rift [S3] (2007) DVDRip+TVRip

12 | 5

2.29 ГБ

В этой теме нет новых непрочитанных сообщений. Большой африканский разлом / Rift Valley / Great Rift - Der grosse Graben (2009) BDRip 720

1 | 2

6.54 ГБ

В этой теме нет новых непрочитанных сообщений. Motorstorm: Pacific Rift [2.42] [Cobra ODE / E3 ODE PRO / 3Key] (2008) PS3

13 | 7

12.25 ГБ




Вы не можете начинать темы
Вы не можете отвечать на сообщения
Вы не можете редактировать свои сообщения
Вы не можете удалять свои сообщения
Вы не можете добавлять вложения

Перейти:  
Для Мосгорсуда, Роскомнадзора и рекламодателей: mosgorsud-torrent[собачка]yandex.ru
 Вход
ppkBB3cker v.2 © 2008-2014 @ PPK
[ Time : 0.031s | 14 Queries | GZIP : Off ]

Торрент трекер RUTOR.IN, Не можете зайти на rutor.org? Какой новый адрес рутор? Какое зеркало рутор? Не работает rutor.org и зеркала? Тогда наш торрент специально для вас. Rutor.in неофициальное зеркало rutor. В случае если у Вас заблокирован rutor или вдруг Вы не можете на него зайти, то Вы без труда сможете скачать бесплатно и без рекламы последние новинки кино, игр, сериалов и прочего у нас, на Rutor.in. Не нужно использовать прокси, чтобы зайти на рутор, достаточно воспользоваться нашим ресурсом. Все новые фильмы, игры, сериалы, книги и музыка за 2013 и 2014 годы через торрент бесплатно. Скачивайте фильмы в хорошем качестве, игры для пк, xbox, playstation без регистрации. У нас вы найдете новые Зарубежные сериалы и Русские сериалы 2013, 2014, 2015 годов. Оставайтесь с нами, качайте любимые фильмы, игры, сериалы, книги и музыку.