img image001 image001 image001 image001 image001 image001 image001 image001 image001 image001 image001 image001 image001 image001 image001

Planets Sun Sun Sun
Статистика раздачи
Автор: Снежана | Размер: 6.04 ГБ | Добавлен: 12 авг 2013
Раздают: 3    Качают: 3
Скачать торрент
Скачать торрент
Описание торрента

СообщениеДобавлено: 12 авг 2013 

#77

Информация о фильме

Название : Бездомная девочка Реми
Оригинальное название : Ie Naki Ko Remi / Remi, Nobody's Girl
Год выхода : 1996
Жанр : аниме, приключения, драма
Режиссер : Кодзо Кудзуха
В ролях : Мицуко Хориэ, Кумико Хиронака, Дзюнко Симаката, Масахико Танака, Фубито Ямано, Эйко Ямада, Юми Тома, Мэгуми Хаясибара, Синобу Адати, Мика Накаи, Юки Хиро, Кёко Цуруно, Каэ Араки, Нобуаки Фукуда



Описание : На основе классической повести для детей «Без семьи» (Sans famille, 1878) французского романиста Гектора Мало.
Реми, скромная и веселая девочка, которая отлично поёт, живет во Франции в деревне под названием Шаванон со своей матерью и младшей сестрёнкой. Однажды она узнаёт, что она «подкидыш» и была взята на воспитание семьёй Барберан. Её отчим, Жером, оставляет работу в Париже и думает, что приёмная мать отправила Реми в сиротский приют. Он возвращается спустя 10 лет и обнаруживает, что Реми все еще там, и приходит в ярость. Он продаёт Реми злобному работорговцу, но её спасает бродячий артист по имени Виталис. В своём путешествии с Виталисом и его компанией ей придётся вынести и преодолеть многие трудности в поисках своей настоящей семьи.
Страна : Япония
Производство : Nippon Animation
Продолжительность : ~24 минут серия
Перевод : Любительский (одноголосый, закадровый)
Файл
Формат видео : MKV
Качество : DVDRip

Видео : XVid, 640x480, 23.976 fps, ~1134 Kbps
Звук 1 : mp3, 44.1 Kbps, 2ch, ~128Kbps (Русский)
Звук 2 : mp3, 44.1 Kbps, 2ch, ~128Kbps (Японский)
Субтитры : Русские (на песни)
Релиз : KeitAndersenn








Доп. информацию про сериал можно прочитать здесь: http://ru.wikipedia.org/wiki/Бездомная_девочка_Реми

1. Грустный день рождения
2. Прощай, мама!
3. Труппа Виталиса
4. Большой подарок
5. Чудо статуи Святой Марии
6. Призрак матери
7. Другая семья
8. До свидания, дом
9. Неожиданная важная встреча
10. Одинокий Артур
11. Тайна медальона
12. Снежная вершина печали
13. Прощание в снежный день
14. Начало нового путешествия
15. Новые друзья
16. Котенок в дождливый день
17. Обет в подземном лабиринте
18. Встреча матери и ребенка
19. Семья бродячих артистов
20. Родственная душа
21. Скрипка воспоминаний
22. Возвращение из подземелья
23. Оба их желания
24. Разлука
25. Побег!
26. Моя мама


Общее
Уникальный идентификатор : 242959569301879869682303461405656496335 (0xB6C84F9C586CC4E0A9655899E3BA38CF)
Полное имя : D:Мои раздачиRemy_Nobody's_GirlRemy_1.mkv
Формат : Matroska
Версия формата : Version 2
Размер файла : 216 Мбайт
Продолжительность : 23 м.
Общий поток : 1279 Кбит/сек
Дата кодирования : UTC 2012-06-18 06:31:28
Программа кодирования : mkvmerge v5.3.0 ('I could have danced') built on Feb 9 2012 10:38:07
Библиотека кодирования : libebml v1.2.3 + libmatroska v1.3.0

Видео
Идентификатор : 1
Формат : MPEG-4 Visual
Профиль формата : Advanced Simple@L5
Параметр BVOP формата : Да
Параметр QPel формата : Нет
Параметр GMC формата : Без точки перехода
Параметр матрицы формата : Default (H.263)
Идентификатор кодека : V_MS/VFW/FOURCC / XVID
Идентификатор кодека/Подсказка : XviD
Продолжительность : 23 м.
Битрейт : 998 Кбит/сек
Ширина : 640 пикселей
Высота : 480 пикселей
Соотношение сторон : 4:3
Режим частоты кадров : Постоянный
Частота кадров : 23,976 кадра/сек
Цветовое пространство : YUV
Субдискретизация насыщенности : 4:2:0
Битовая глубина : 8 бит
Тип развёртки : Прогрессивная
Метод сжатия : С потерями
Бит/(Пиксели*Кадры) : 0.135
Размер потока : 169 Мбайт (78%)
Библиотека кодирования : XviD 63
Default : Да
Forced : Нет

Аудио #1
Идентификатор : 3
Формат : MPEG Audio
Версия формата : Version 1
Профиль формата : Layer 3
Режим смешивания : Header stripping
Идентификатор кодека : A_MPEG/L3
Идентификатор кодека/Подсказка : MP3
Продолжительность : 23 м.
Вид битрейта : Постоянный
Битрейт : 128 Кбит/сек
Каналы : 2 канала
Частота : 44,1 КГц
Метод сжатия : С потерями
Размер потока : 21,6 Мбайт (10%)
Библиотека кодирования : LAME3.98r
Настройки программы : -m s -V 4 -q 3 -lowpass 17 -b 128
Default : Да
Forced : Нет

Аудио #2
Идентификатор : 4
Формат : MPEG Audio
Версия формата : Version 1
Профиль формата : Layer 3
Режим смешивания : Header stripping
Идентификатор кодека : A_MPEG/L3
Идентификатор кодека/Подсказка : MP3
Продолжительность : 23 м.
Вид битрейта : Постоянный
Битрейт : 128 Кбит/сек
Каналы : 2 канала
Частота : 48,0 КГц
Метод сжатия : С потерями
Размер потока : 21,6 Мбайт (10%)
Default : Нет
Forced : Нет

Текст
Идентификатор : 2
Формат : UTF-8
Идентификатор кодека : S_TEXT/UTF8
Идентификатор кодека/Информация : UTF-8 Plain Text
Default : Да
Forced : Нет







   Похожие торренты   Торрент   Размер 
В этой теме нет новых непрочитанных сообщений. Бездомный мальчик Реми / Nobody's Boy Remi / Remi the Homeless Boy / Rittai Anime Ie Naki Ko Remi (1977-1978) DVDRip

9 | 8

11.69 ГБ

В этой теме нет новых непрочитанных сообщений. Маленькая девочка-пулемёт / Скромная девочка-пулемёт / Shyness Machine Girl / The Hajirai Machine Girl (2009) DVDRip

21 | 3

667.58 МБ

В этой теме нет новых непрочитанных сообщений. Девочка-Вампир против Девочки-Франкенштейн / Vampire Girl VS Frankenstein Girl (2009) DVDRip

62 | 5

1.07 ГБ

В этой теме нет новых непрочитанных сообщений. Моя девочка / Моя дочь / My Girl (1991) DVDRip

8 | 6

1.6 ГБ

В этой теме нет новых непрочитанных сообщений. Девочка из океана / Ocean Girl [S02] (1995) DVDRip | P

21 | 43

4.74 ГБ

В этой теме нет новых непрочитанных сообщений. Девочка из океана / Ocean Girl [S01] (1994) DVDRip | P

24 | 48

4.74 ГБ

В этой теме нет новых непрочитанных сообщений. Мертвая девочка / The Dead Girl (2006) DVDRip

8 | 2

1.46 ГБ




Вы не можете начинать темы
Вы не можете отвечать на сообщения
Вы не можете редактировать свои сообщения
Вы не можете удалять свои сообщения
Вы не можете добавлять вложения

Перейти:  
Для Мосгорсуда, Роскомнадзора и рекламодателей: mosgorsud-torrent[собачка]yandex.ru
 Вход
ppkBB3cker v.2 © 2008-2014 @ PPK
[ Time : 2.159s | 14 Queries | GZIP : Off ]

Торрент трекер RUTOR.IN, Не можете зайти на rutor.org? Какой новый адрес рутор? Какое зеркало рутор? Не работает rutor.org и зеркала? Тогда наш торрент специально для вас. Rutor.in неофициальное зеркало rutor. В случае если у Вас заблокирован rutor или вдруг Вы не можете на него зайти, то Вы без труда сможете скачать бесплатно и без рекламы последние новинки кино, игр, сериалов и прочего у нас, на Rutor.in. Не нужно использовать прокси, чтобы зайти на рутор, достаточно воспользоваться нашим ресурсом. Все новые фильмы, игры, сериалы, книги и музыка за 2013 и 2014 годы через торрент бесплатно. Скачивайте фильмы в хорошем качестве, игры для пк, xbox, playstation без регистрации. У нас вы найдете новые Зарубежные сериалы и Русские сериалы 2013, 2014, 2015 годов. Оставайтесь с нами, качайте любимые фильмы, игры, сериалы, книги и музыку.