img image001 image001 image001 image001 image001 image001 image001 image001 image001 image001 image001 image001 image001 image001 image001

Planets Sun Sun Sun
Статистика раздачи
Автор: Снежана | Размер: 2.99 ГБ | Добавлен: 11 авг 2013
Раздают: 14    Качают: 21
Скачать торрент
Скачать торрент
Описание торрента

СообщениеДобавлено: 11 авг 2013 

Работящий Лорд-Демон / Hataraku Maou-sama!/ The Devil is a Part-Timer!



Страна: Япония
Год выпуска: 2013 г.
Жанр: Приключения
Тип: TV
Продолжительность: 25 мин.
Режиссер: Хосода Наото
Студия:

Описание: История начинается в альтернативной реальности, когда Князь Тьмы, то бишь Сатана, решает завоевать континент Энте Ислу. Но на каждого злодея найдётся свой герой. Вот и Эмилия задумала остановить нечестивца, и ей это, к счастью, удаётся. «Пора сматываться», — решает незадачливый Князь и случайно попадает в иной мир, а точнее, в современный Токио, столь ужасный и неизведанный для Сатаны и его друга и соратника Альсиэля.
Но, упс, беднягам явно не везёт! Героев, слава богу, вроде не видно, но вот магия не действует в этом мире! И обратно никак не вернуться. Нужен новый план. Как там у людишек принято — из грязи в князи? Ну ладно, не силой, так трудолюбием возьмём. Отсюда и начинается путь «Сатаны на полставки!»
А в это время по следам нашего Князя в столицу Японии прибывает сама Герой Эмилия и некоторые другие странные личности. Итак, кажется, время для охоты на Князя Тьмы настало!

Качество: HDTVRip
Тип релиза: Без хардсаба
Формат видео: MKV
Релиз/Автор рипа: Zero-Raws
Видео: AVC (High@L3.1), 1280x720 (16:9), 23.976 fps, 1183 Kbps, 8bits
Аудио: AC-3, 192 Kbps, 48.0 KHz, 16 bits, 2ch Язык Русский (в составе контейнера) ; Озвучка: (одноголосная) HYVER

Сэмпл

General
Unique ID : 178855224572952076870537391496709615711 (0x868E4365C313D39A869620442009305F)
Complete name : C:UsersHYVERDesktopHYVER[RenegadeTeam] Hataraku Maou-sama (HYVER)[RenegadeTeam] Hataraku Maou-sama - 01 [720p] (HYVER).mkv
Format : Matroska
Format version : Version 4 / Version 2
File size : 237 MiB
Duration : 23mn 39s
Overall bit rate : 1 403 Kbps
Encoded date : UTC 2013-04-06 11:35:26
Writing application : mkvmerge v6.0.0 ('Coming Up For Air') built on Jan 20 2013 09:52:00
Writing library : libebml v1.3.0 + libmatroska v1.4.0

Video
ID : 1
Format : AVC
Format/Info : Advanced Video Codec
Format profile : High@L3.1
Format settings, CABAC : Yes
Format settings, ReFrames : 4 frames
Codec ID : V_MPEG4/ISO/AVC
Duration : 23mn 39s
Bit rate : 1 183 Kbps
Width : 1 280 pixels
Height : 720 pixels
Display aspect ratio : 16:9
Frame rate : 23.976 fps
Color space : YUV
Chroma subsampling : 4:2:0
Bit depth : 8 bits
Scan type : Progressive
Bits/(Pixel*Frame) : 0.054
Stream size : 200 MiB (84%)
Writing library : x264 core 128 r2216+698 b3c1019
Encoding settings : cabac=1 / ref=3 / deblock=1:0:0 / analyse=0x3:0x113 / me=hex / subme=7 / psy=1 / fade_compensate=0.00 / psy_rd=1.00:0.00 / mixed_ref=1 / me_range=16 / chroma_me=1 / trellis=1 / 8x8dct=1 / cqm=0 / deadzone=21,11 / fast_pskip=1 / chroma_qp_offset=-2 / threads=12 / lookahead_threads=2 / sliced_threads=0 / nr=0 / decimate=1 / interlaced=0 / bluray_compat=0 / constrained_intra=0 / fgo=0 / bframes=3 / b_pyramid=2 / b_adapt=1 / b_bias=0 / direct=1 / weightb=1 / open_gop=0 / weightp=2 / keyint=250 / keyint_min=23 / scenecut=40 / intra_refresh=0 / rc_lookahead=40 / rc=crf / mbtree=1 / crf=19.5000 / qcomp=0.60 / qpmin=0 / qpmax=69 / qpstep=4 / ip_ratio=1.40 / aq=1:1.00
Default : Yes
Forced : No

Audio
ID : 2
Format : AC-3
Format/Info : Audio Coding 3
Mode extension : CM (complete main)
Format settings, Endianness : Big
Codec ID : A_AC3
Duration : 23mn 39s
Bit rate mode : Constant
Bit rate : 192 Kbps
Channel(s) : 2 channels
Channel positions : Front: L R
Sampling rate : 48.0 KHz
Bit depth : 16 bits
Compression mode : Lossy
Stream size : 32.5 MiB (14%)
Default : Yes
Forced : No








   Похожие торренты   Торрент   Размер 
В этой теме нет новых непрочитанных сообщений. Сатана на подработке! / Hataraku Maou-sama! [TV] [01-13 из 13] (2013) BDRip 720p | L2

117 | 62

7.14 ГБ

В этой теме нет новых непрочитанных сообщений. Cатана на подработке! / Hataraku Maou-sama! [01-03 из 12] (2013) HDTVRip 720p | L

1 | 0

1.02 ГБ

В этой теме нет новых непрочитанных сообщений. Юный лорд Фаунтлерой / Маленький лорд Фаунтлерой / Little Lord Fauntleroy (1936) BDRip от HQCLUB

10 | 1

1.45 ГБ

В этой теме нет новых непрочитанных сообщений. Косукэ и Рикимару: Дракон Острова Компэй / Kosuke-sama Rikimaru-sama: Konpeitou no Ryuu (1988) VHSRip-AVC | L1

10 | 0

697.2 МБ

В этой теме нет новых непрочитанных сообщений. Таймер / TiMER (2009) BDRip 720p от FREEISLAND | Лицензия

1 | 1

4.35 ГБ

В этой теме нет новых непрочитанных сообщений. В воскресенье у Бога выходной / Kami-sama no Inai Nichiyoubi [01-12 из 12] (2013) HDTV 720p | L2

37 | 4

3.41 ГБ

В этой теме нет новых непрочитанных сообщений. В воскресенье у Бога выходной / Kami-sama no Inai Nichiyoubi [01-05 из 12] (2013) HDTV 720p | L2

0 | 2

1.46 ГБ




Вы не можете начинать темы
Вы не можете отвечать на сообщения
Вы не можете редактировать свои сообщения
Вы не можете удалять свои сообщения
Вы не можете добавлять вложения

Перейти:  
Для Мосгорсуда, Роскомнадзора и рекламодателей: mosgorsud-torrent[собачка]yandex.ru
 Вход
ppkBB3cker v.2 © 2008-2014 @ PPK
[ Time : 0.057s | 15 Queries | GZIP : Off ]

Торрент трекер RUTOR.IN, Не можете зайти на rutor.org? Какой новый адрес рутор? Какое зеркало рутор? Не работает rutor.org и зеркала? Тогда наш торрент специально для вас. Rutor.in неофициальное зеркало rutor. В случае если у Вас заблокирован rutor или вдруг Вы не можете на него зайти, то Вы без труда сможете скачать бесплатно и без рекламы последние новинки кино, игр, сериалов и прочего у нас, на Rutor.in. Не нужно использовать прокси, чтобы зайти на рутор, достаточно воспользоваться нашим ресурсом. Все новые фильмы, игры, сериалы, книги и музыка за 2013 и 2014 годы через торрент бесплатно. Скачивайте фильмы в хорошем качестве, игры для пк, xbox, playstation без регистрации. У нас вы найдете новые Зарубежные сериалы и Русские сериалы 2013, 2014, 2015 годов. Оставайтесь с нами, качайте любимые фильмы, игры, сериалы, книги и музыку.
cron