img image001 image001 image001 image001 image001 image001 image001 image001 image001 image001 image001 image001 image001 image001 image001

Planets Sun Sun Sun
Статистика раздачи
Автор: PriZraK | Размер: 937.78 МБ | Добавлен: 15 фев 2014
Раздают: 10    Качают: 18
Скачать торрент
Скачать торрент
Описание торрента

СообщениеДобавлено: 15 фев 2014 

Оригинальное название: Kyoushoku Soukou Guyver
Английское название: The Guyver: Out of Control
Русское название: Гайвер: Неконтролируемый
Страна: Япония
Год выпуска / период трансляции: 13.12.1986
Жанр: приключения, фантастика, меха, ужасы
Количество эпизодов: 1
Продолжительность: 53 мин.
Режиссёр: Ватанабэ Хироси
Сценарий: Снято по манге: Kyoushoku Soukou Guyver
Автор оригинала: Такая Ёсики
Студия:
Описание:
Давным-давно инопланетяне из разных частей Вселенной прилетели на Землю. Их целью было создание мощнейшего биологического оружия для ведения инопланетных войн. С этой целью они создали на Земле жизнь и стали постепенно выводить всё новые виды живых организмов. Так появились все растения и животные, населяющие Землю, а также и человек. Но человек не был конечным продуктом эволюции: инопланетяне создали зоаноидов — генетически изменённых людей, которые могут трансформироваться в сильных и мощных монстров. Зоаноиды подчинялись телепатическим сигналам инопланетян, и они могли управлять Зоаноидами по своему усмотрению. Но однажды инопланетяне создали Гайвера — это был еще один вид биологического оружия, представляющий из себя биомеханическую броню. Однако в ходе экспериментов оказалось, что Гайвер не поддаётся контролю в отличие от зоаноидов. Гайвер отказался принять первоначальный облик носителя и убил тестового зоаноида, с помощью которого проводили испытания Гайвера. Инопланетянам с большим трудом удалось убить носителя, а затем они покинули Землю. Почему они это сделали неизвестно: возможно они испугались последствий своих изобретений, в частности Гайвера. Само название Гайвер означает «Неконтролируемый», «Не поддающийся контролю», «Вне контроля», так как инопланетяне не смогли контролировать его. С учетом того, что инопланетяне, создавшие Гайвера, были из различных частей Вселенной, то теоретически Гайвер должен чувствовать себя в полной безопасности и иметь силу в любой ее точке. © Wikipedia

Источник рипа: DVD-5 (Source - VHS)
Автор рипаэнкод: Renmei Rei
Тип видео: Без хардсаба
Контейнер: AVI
Видео: XviD (Build 73) | 720 x 540 пикселей | 23,976 кадра/сек | ~1800 Кбит/сек ;

Аудио:
RUS: AC-3 | 48.0 КГц | стерео | 256 Кбит/сек;
JAP: AC-3 | 48.0 КГц | стерео | 256 Кбит/сек

Субтитры: русские | отдельно (SRT)
Перевод: ДракончиК

Озвучивание: любительский одноголосый (жен.) от Persona99

Код:
Общее
Полное имя                               : Guyver (movie)[DVDRip][HWP]Kyoshoku Soku Guyver Kikaku Gaihin [DVDRip][720x540 XviD AC3x2][GetSmart & AnimeReactor].avi
Формат                                   : AVI
Формат/Информация                        : Audio Video Interleave
Размер файла                             : 938 Мбайт
Продолжительность                        : 56 м.
Общий поток                              : 2326 Кбит/сек
Программа кодирования                    : VirtualDubModRus 1.5.10.2 (build 2542/release)
Библиотека кодирования                   : VirtualDubMod build 2542/release

Видео
Идентификатор                            : 0
Формат                                   : MPEG-4 Visual
Профиль формата                          : Advanced Simple@L5
Параметр BVOP формата                    : 2
Параметр QPel формата                    : Нет
Параметр GMC формата                     : Без точки перехода
Параметр матрицы формата                 : Default (H.263)
Идентификатор кодека                     : XVID
Идентификатор кодека/Подсказка           : XviD
Продолжительность                        : 56 м.
Битрейт                                  : 1800 Кбит/сек
Ширина                                   : 720 пикселей
Высота                                   : 540 пикселей
Соотношение сторон                       : 4:3
Частота кадров                           : 23,976 кадра/сек
Цветовое пространство                    : YUV
Субдискретизация насыщенности            : 4:2:0
Битовая глубина                          : 8 бит
Тип развёртки                            : Прогрессивная
Метод сжатия                             : С потерями
Бит/(Пиксели*Кадры)                      : 0.193
Размер потока                            : 726 Мбайт (77%)
Библиотека кодирования                   : XviD 73

Аудио #1
Идентификатор                            : 1
Формат                                   : AC-3
Формат/Информация                        : Audio Coding 3
Расширение режима                        : CM (complete main)
Параметр Endianness формата              : Big
Идентификатор кодека                     : 2000
Продолжительность                        : 56 м.
Вид битрейта                             : Постоянный
Битрейт                                  : 256 Кбит/сек
Каналы                                   : 2 канала
Расположение каналов                     : Front: L R
Частота                                  : 48,0 КГц
Битовая глубина                          : 16 бит
Метод сжатия                             : С потерями
Размер потока                            : 103 Мбайт (11%)
Выравнивание                             : Разделение по промежуткам
Продолжительность промежутка             : 42  мс. (1,00 видеокадр)
Время предзагрузки промежутка            : 500  мс.
Заголовок                                : Russian [Persona99]

Аудио #2
Идентификатор                            : 2
Формат                                   : AC-3
Формат/Информация                        : Audio Coding 3
Расширение режима                        : CM (complete main)
Параметр Endianness формата              : Big
Идентификатор кодека                     : 2000
Продолжительность                        : 56 м.
Вид битрейта                             : Постоянный
Битрейт                                  : 256 Кбит/сек
Каналы                                   : 2 канала
Расположение каналов                     : Front: L R
Частота                                  : 48,0 КГц
Битовая глубина                          : 16 бит
Метод сжатия                             : С потерями
Размер потока                            : 103 Мбайт (11%)
Выравнивание                             : Разделение по промежуткам
Продолжительность промежутка             : 42  мс. (1,00 видеокадр)
Время предзагрузки промежутка            : 500  мс.
Заголовок                                : Japanese [Original]



Семпл: http://sendfile.su/851818



   Похожие торренты   Торрент   Размер 
В этой теме нет новых непрочитанных сообщений. Гайвер: Био-ударное оружие / Guyver: Out of Control, Bio-Booster Armor Guyver [ПАК] (1986, 1989, 2005) TVRip

438 | 86

10.51 ГБ

В этой теме нет новых непрочитанных сообщений. Гайвер: Био-ударное оружие / Guyver the bioboosted armor Kyôshoku sôkô Guyver [s1] (2005 - 2006) TVRip

127 | 16

6.88 ГБ

В этой теме нет новых непрочитанных сообщений. Гайвер / Guyver (1991) DVDRip

17 | 4

1.24 ГБ

В этой теме нет новых непрочитанных сообщений. Гайвер / Guyver (1991) DVDRip

84 | 16

1.45 ГБ

В этой теме нет новых непрочитанных сообщений. Гайвер / Guyver (1991) DVDRip-AVC от Youtracker | Режиссерская версия

60 | 31

1.44 ГБ

В этой теме нет новых непрочитанных сообщений. Гайвер / Guyver (1991) DVDRip от Youtracker | Режиссерская версия

19 | 9

744.67 МБ

В этой теме нет новых непрочитанных сообщений. Гайвер 2: Темный герой / Guyver: Dark Hero (1994) DVDRip

192 | 7

2.18 ГБ




Вы не можете начинать темы
Вы не можете отвечать на сообщения
Вы не можете редактировать свои сообщения
Вы не можете удалять свои сообщения
Вы не можете добавлять вложения

Перейти:  
Для Мосгорсуда, Роскомнадзора и рекламодателей: mosgorsud-torrent[собачка]yandex.ru
 Вход
ppkBB3cker v.2 © 2008-2014 @ PPK
[ Time : 0.061s | 16 Queries | GZIP : Off ]

Торрент трекер RUTOR.IN, Не можете зайти на rutor.org? Какой новый адрес рутор? Какое зеркало рутор? Не работает rutor.org и зеркала? Тогда наш торрент специально для вас. Rutor.in неофициальное зеркало rutor. В случае если у Вас заблокирован rutor или вдруг Вы не можете на него зайти, то Вы без труда сможете скачать бесплатно и без рекламы последние новинки кино, игр, сериалов и прочего у нас, на Rutor.in. Не нужно использовать прокси, чтобы зайти на рутор, достаточно воспользоваться нашим ресурсом. Все новые фильмы, игры, сериалы, книги и музыка за 2013 и 2014 годы через торрент бесплатно. Скачивайте фильмы в хорошем качестве, игры для пк, xbox, playstation без регистрации. У нас вы найдете новые Зарубежные сериалы и Русские сериалы 2013, 2014, 2015 годов. Оставайтесь с нами, качайте любимые фильмы, игры, сериалы, книги и музыку.