img image001 image001 image001 image001 image001 image001 image001 image001 image001 image001 image001 image001 image001 image001 image001

Planets Sun Sun Sun
Статистика раздачи
Автор: PriZraK | Размер: 7.95 ГБ | Добавлен: 15 фев 2014
Раздают: 108    Качают: 5
Скачать торрент
Скачать торрент
Описание торрента

СообщениеДобавлено: 15 фев 2014 


Информация о фильме
    Русское название: Рыбка Поньо на Утёсе
    Оригинальное название: Ponyo on the Cliff by the Sea / Gake no Ue no Ponyo
    Год выхода: 2008
    Жанр: Cказка, Приключения
    Режиссер: Хаяо Миядзаки
    Выпущено: Япония
    Продолжительность: 01:40:50
    Перевод: Дублированный, Профессиональный (многоголосый, закадровый), Авторский одноголосый (Немахов)
    В ролях: Ямагути Томоко, Нагасима Кадзусигэ, Амами Юки, Токоро Дзёдзи, Дой Хироки, Нара Юрия, Хиираги Руми, Яно Акико, Ёсиюки Кадзуко, Нараока Томоко, Хидари Токиэ, Хираока Эйми, Охаси Нозоми и другие


Сюжет фильма
    Маленькая любопытная рыбка Поньо — дочь колдуна и прекрасной морской богини уплывает из дома, чтобы понаблюдать за жизнью людей. Поньо застревает в банке и оказывается выброшенной на берег. Ее подбирает пятилетний Сооскэ. Малыши привязываются друг к другу. И теперь у Поньо только одно желание — стать человеком!


Файл
    Качество: BDRip 1080p (DVD9) (исходник Blu-ray Remux)
    Видео: 1920x1036, 8920 Кбит/сек, 23,976 кадр/сек, AVC, x264, High@L4.1, 1.85:1, 0.187 Бит/[Пиксели*Кадры], 2pass
    Аудио 1: AC-3, 448 Кбит/сек, 6 канала(ов), 48,0 КГц - Дублированный / Русский
    Аудио 2: AC-3, 640 Кбит/сек, 6 канала(ов), 48,0 КГц - Профессиональный (многоголосый, закадровый) (Киномания) / Русский
    Аудио 3: AC-3, 640 Кбит/сек, 6 канала(ов), 48,0 КГц - Авторский одноголосый (Немахов) / Русский
    Аудио 4: AC-3, 640 Кбит/сек, 6 канала(ов), 48,0 КГц - Оригинал / Японский
    Субтитры: Русские | Полные, Английские | Полные
    Чаптеры: Есть



Релиз Группа : & Автор Рипа :



Format : Matroska
Format version : Version 4 / Version 2
File size : 7.95 GiB
Duration : 1h 40mn
Overall bit rate : 11.3 Mbps
Movie name : Рыбка Поньо на Утёсе.(2008).BDRip.1080p.(DVD9).[NoLimits-Team]
Encoded date : UTC 2013-08-23 04:18:21
Writing application : mkvmerge v6.3.0 ('You can't stop me!') built on Jun 28 2013 20:09:41
Writing library : libebml v1.3.0 + libmatroska v1.4.0

Video
ID : 1
Format : AVC
Format/Info : Advanced Video Codec
Format profile : High@L4.1
Format settings, CABAC : Yes
Format settings, ReFrames : 4 frames
Codec ID : V_MPEG4/ISO/AVC
Duration : 1h 40mn
Bit rate : 8 920 Kbps
Width : 1 920 pixels
Height : 1 036 pixels
Display aspect ratio : 1.85:1
Frame rate mode : Constant
Frame rate : 23.976 fps
Color space : YUV
Chroma subsampling : 4:2:0
Bit depth : 8 bits
Scan type : Progressive
Bits/(Pixel*Frame) : 0.187
Stream size : 6.13 GiB (77%)
Title : Рыбка Поньо на Утёсе.(2008).BDRip.1080p.(DVD9).[NoLimits-Team]
Writing library : x264 core 135 r2345 f0c1c53
Encoding settings : cabac=1 / ref=4 / deblock=1:0:0 / analyse=0x3:0x133 / me=umh / subme=11 / psy=1 / psy_rd=1.00:0.00 / mixed_ref=1 / me_range=32 / chroma_me=1 / trellis=2 / 8x8dct=1 / cqm=0 / deadzone=21,11 / fast_pskip=0 / chroma_qp_offset=-2 / threads=12 / lookahead_threads=1 / sliced_threads=0 / nr=0 / decimate=1 / interlaced=0 / bluray_compat=0 / constrained_intra=0 / bframes=6 / b_pyramid=2 / b_adapt=2 / b_bias=0 / direct=3 / weightb=1 / open_gop=0 / weightp=2 / keyint=240 / keyint_min=23 / scenecut=40 / intra_refresh=0 / rc=2pass / mbtree=0 / bitrate=8920 / ratetol=2.0 / qcomp=0.60 / qpmin=0 / qpmax=69 / qpstep=4 / cplxblur=20.0 / qblur=0.5 / ip_ratio=1.40 / pb_ratio=1.30 / aq=1:1.00
Language : Japanese
Default : Yes
Forced : No

Audio #1
ID : 2
Format : AC-3
Format/Info : Audio Coding 3
Mode extension : CM (complete main)
Format settings, Endianness : Big
Codec ID : A_AC3
Duration : 1h 40mn
Bit rate mode : Constant
Bit rate : 448 Kbps
Channel(s) : 6 channels
Channel positions : Front: L C R, Side: L R, LFE
Sampling rate : 48.0 KHz
Bit depth : 16 bits
Compression mode : Lossy
Stream size : 323 MiB (4%)
Title : Дублированный
Language : Russian
Default : Yes
Forced : No

Audio #2
ID : 3
Format : AC-3
Format/Info : Audio Coding 3
Mode extension : CM (complete main)
Format settings, Endianness : Big
Codec ID : A_AC3
Duration : 1h 40mn
Bit rate mode : Constant
Bit rate : 640 Kbps
Channel(s) : 6 channels
Channel positions : Front: L C R, Side: L R, LFE
Sampling rate : 48.0 KHz
Bit depth : 16 bits
Compression mode : Lossy
Stream size : 462 MiB (6%)
Title : Многоголосый закадровый (Киномания)
Language : Russian
Default : No
Forced : No

Audio #3
ID : 4
Format : AC-3
Format/Info : Audio Coding 3
Mode extension : CM (complete main)
Format settings, Endianness : Big
Codec ID : A_AC3
Duration : 1h 40mn
Bit rate mode : Constant
Bit rate : 640 Kbps
Channel(s) : 6 channels
Channel positions : Front: L C R, Side: L R, LFE
Sampling rate : 48.0 KHz
Bit depth : 16 bits
Compression mode : Lossy
Stream size : 462 MiB (6%)
Title : Авторский (Немахов)
Language : Russian
Default : No
Forced : No

Audio #4
ID : 5
Format : AC-3
Format/Info : Audio Coding 3
Mode extension : CM (complete main)
Format settings, Endianness : Big
Codec ID : A_AC3
Duration : 1h 40mn
Bit rate mode : Constant
Bit rate : 640 Kbps
Channel(s) : 6 channels
Channel positions : Front: L C R, Side: L R, LFE
Sampling rate : 48.0 KHz
Bit depth : 16 bits
Compression mode : Lossy
Stream size : 462 MiB (6%)
Title : Оригинал / Японский
Language : Japanese
Default : No
Forced : No

Text #1
ID : 6
Format : UTF-8
Codec ID : S_TEXT/UTF8
Codec ID/Info : UTF-8 Plain Text
Title : Русские (полные) (RUSICO)
Language : Russian
Default : No
Forced : No

Text #2
ID : 7
Format : UTF-8
Codec ID : S_TEXT/UTF8
Codec ID/Info : UTF-8 Plain Text
Title : Full
Language : English
Default : No
Forced : No

Menu
00:00:00.000 : :Chapter 01
00:04:34.983 : :Chapter 02
00:09:58.306 : :Chapter 03
00:16:14.098 : :Chapter 04
00:21:02.094 : :Chapter 05
00:27:07.584 : :Chapter 06
00:35:21.369 : :Chapter 07
00:41:21.771 : :Chapter 08
00:48:34.203 : :Chapter 09
00:55:21.652 : :Chapter 10
01:02:00.675 : :Chapter 11
01:08:53.171 : :Chapter 12
01:12:58.833 : :Chapter 13
01:19:22.925 : :Chapter 14
01:24:30.857 : :Chapter 15
01:29:08.885 : :Chapter 16
01:34:54.772 : :Chapter 17
01:39:09.902 : :Chapter 18





   Похожие торренты   Торрент   Размер 
В этой теме нет новых непрочитанных сообщений. Рыбка Поньо на Утёсе / Понё на утёсе / Ponyo on the Cliff by the Sea / Gake no Ue no Ponyo (2008) BDRip-AVC от HQCLUB | Лицензия

596 | 51

2.19 ГБ

В этой теме нет новых непрочитанных сообщений. Бездна / The Deep (1977) BDRip 1080p от NoLimits-Team & FireBit-Films

12 | 14

7.95 ГБ

В этой теме нет новых непрочитанных сообщений. Выкуп / Ransom (1996) BDRip 1080p от NoLimits-Team & FireBit-Films | P, A

4 | 5

9.85 ГБ

В этой теме нет новых непрочитанных сообщений. На дне бездны / In Too Deep (1999) BDRip 1080p от NoLimits-Team & FireBit-Films

0 | 12

7.94 ГБ

В этой теме нет новых непрочитанных сообщений. Белый плен / Eight Below (2006) BDRip 1080p от NoLimits-Team & FireBit-Films

63 | 8

7.95 ГБ

В этой теме нет новых непрочитанных сообщений. Альфа Дог / Alpha Dog (2006) BDRip 1080p от NoLimits-Team & FireBit-Films

47 | 15

7.95 ГБ

В этой теме нет новых непрочитанных сообщений. Королевство кривых зеркал (1963) BDRip 1080p от NoLimits-Team & FireBit-Films

64 | 12

7.95 ГБ




Вы не можете начинать темы
Вы не можете отвечать на сообщения
Вы не можете редактировать свои сообщения
Вы не можете удалять свои сообщения
Вы не можете добавлять вложения

Перейти:  
Для Мосгорсуда, Роскомнадзора и рекламодателей: mosgorsud-torrent[собачка]yandex.ru
 Вход
ppkBB3cker v.2 © 2008-2014 @ PPK
[ Time : 0.027s | 15 Queries | GZIP : Off ]

Торрент трекер RUTOR.IN, Не можете зайти на rutor.org? Какой новый адрес рутор? Какое зеркало рутор? Не работает rutor.org и зеркала? Тогда наш торрент специально для вас. Rutor.in неофициальное зеркало rutor. В случае если у Вас заблокирован rutor или вдруг Вы не можете на него зайти, то Вы без труда сможете скачать бесплатно и без рекламы последние новинки кино, игр, сериалов и прочего у нас, на Rutor.in. Не нужно использовать прокси, чтобы зайти на рутор, достаточно воспользоваться нашим ресурсом. Все новые фильмы, игры, сериалы, книги и музыка за 2013 и 2014 годы через торрент бесплатно. Скачивайте фильмы в хорошем качестве, игры для пк, xbox, playstation без регистрации. У нас вы найдете новые Зарубежные сериалы и Русские сериалы 2013, 2014, 2015 годов. Оставайтесь с нами, качайте любимые фильмы, игры, сериалы, книги и музыку.
cron