img image001 image001 image001 image001 image001 image001 image001 image001 image001 image001 image001 image001 image001 image001 image001

Planets Sun Sun Sun
Статистика раздачи
Автор: PriZraK | Размер: 4.22 ГБ | Добавлен: 15 фев 2014
Раздают: 2    Качают: 3
Скачать торрент
Скачать торрент
Описание торрента

СообщениеДобавлено: 15 фев 2014 


Информация о фильме
    Русское название: Макросс: Помнишь ли нашу любовь?
    Оригинальное название: Super Dimensional Fortress Macross: Do You Remember Love? / Chôjikû yôsai Macross: Ai oboeteimasuka
    Год выхода: 1984
    Жанр: Фантастика, меха, приключения, драма
    Режиссер: Кавамори Сёдзи
    Выпущено: Япония
    Продолжительность: 01:55:23
    Перевод: Любительский (закадровый одноголосый) (Azazel)


Сюжет фильма
    "Macross: Do You Remember Love?" - полнометражный анимационный фильм, снятый по мотивам ТВ-сериала "Super Dimensional Fortress Macross". В 2009 году н.э. человечество оказалось втянуто в трехсторонний военный конфликт с расой гигантских пришельцев-гуманоидов Зентради. Генетически эта раса представляет из себя единое целое, однако, женские особи называют себя Мелтранди и сражаются независимо за собственное военное превосходство. Потерпев поражение в первой битве против инопланетян, гиперпространственная крепость Макросс была отброшена на край солнечной системы и теперь держит путь назад к Земле. Во время короткого столкновения с силами Зентради, молодой пилот Хикару Ичидзе спасает поп-диву Линн Минмэй. По стечению обстоятельств, они проводят неделю вместе, запертые в отсеке корабля, и в конечном итоге влюбляются друг в друга. По возвращении в Макросс Сити Хикару за самодеятельность на поле боя получает выговор от офицера Мисы Хаясе, однако, за спасение известной певицы на этот раз он освобожден от наказания. Случайно обнаруживается, что голос Минмэй способен воздействовать на вражескую армию и может помочь отражать атаки пришельцев. Вскоре Зентради похищают Минмэй, и Хикару вместе с Мисой Хаясе и своим другом Роем Фолкером пытаются в очередной раз спасти ее. Однако им это не удается, и в итоге Миса и Хикару оказываются на Земле, где наблюдают трагическую картину своей разрушенной цивилизации. Ошибочно полагая, что они, вероятно, последняя пара землян, оставшихся в живых, Миса и Хикару влюбляются друг в друга. Так на фоне войны между враждующими цивилизациями возникает любовный треугольник. И всем троим нужно как можно быстрее определиться со своими чувствами, ибо теперь судьбу их мира может решить лишь голос Линн Минмэй и простая мелодия, написанная много лет назад.


Файл
    Качество: BDRip 720p (DVD5) (исходник Blu-ray Remux)
    Видео: 1280x692, 4160 Кбит/сек, 23,976 кадр/сек, AVC, x264, High@L4.1, 1.85:1, 0.196 Бит/[Пиксели*Кадры], 2pass
    Аудио 1: AC-3, 448 Кбит/сек, 2 канала(ов), 48,0 КГц - Одноголосый (Azazel) / Русский
    Аудио 2: AC-3, 640 Кбит/сек, 6 канала(ов), 48,0 КГц - Оригинал / Японский
    Субтитры: Русские | Полные (A. Doubinski)
    Чаптеры: Нет



Релиз Группа : & Автор Рипа :



Format : Matroska
Format version : Version 4 / Version 2
File size : 4.22 GiB
Duration : 1h 55mn
Overall bit rate : 5 238 Kbps
Movie name : Макросс: Помнишь ли нашу любовь?.(1984).BDRip.720p.(DVD5).[NoLimits-Team]
Encoded date : UTC 2013-08-23 07:44:32
Writing application : mkvmerge v6.3.0 ('You can't stop me!') built on Jun 28 2013 20:09:41
Writing library : libebml v1.3.0 + libmatroska v1.4.0

Video
ID : 1
Format : AVC
Format/Info : Advanced Video Codec
Format profile : High@L4.1
Format settings, CABAC : Yes
Format settings, ReFrames : 8 frames
Codec ID : V_MPEG4/ISO/AVC
Duration : 1h 55mn
Bit rate : 4 160 Kbps
Width : 1 280 pixels
Height : 692 pixels
Display aspect ratio : 1.85:1
Frame rate mode : Constant
Frame rate : 23.976 fps
Color space : YUV
Chroma subsampling : 4:2:0
Bit depth : 8 bits
Scan type : Progressive
Bits/(Pixel*Frame) : 0.196
Stream size : 3.26 GiB (77%)
Title : Макросс: Помнишь ли нашу любовь?.(1984).BDRip.720p.(DVD5).[NoLimits-Team]
Writing library : x264 core 135 r2345 f0c1c53
Encoding settings : cabac=1 / ref=8 / deblock=1:0:0 / analyse=0x3:0x133 / me=umh / subme=11 / psy=1 / psy_rd=1.00:0.00 / mixed_ref=1 / me_range=32 / chroma_me=1 / trellis=2 / 8x8dct=1 / cqm=0 / deadzone=21,11 / fast_pskip=0 / chroma_qp_offset=-2 / threads=12 / lookahead_threads=2 / sliced_threads=0 / nr=0 / decimate=1 / interlaced=0 / bluray_compat=0 / constrained_intra=0 / bframes=8 / b_pyramid=2 / b_adapt=2 / b_bias=0 / direct=3 / weightb=1 / open_gop=0 / weightp=2 / keyint=240 / keyint_min=23 / scenecut=40 / intra_refresh=0 / rc=2pass / mbtree=0 / bitrate=4160 / ratetol=2.0 / qcomp=0.60 / qpmin=0 / qpmax=69 / qpstep=4 / cplxblur=20.0 / qblur=0.5 / ip_ratio=1.40 / pb_ratio=1.30 / aq=1:0.90
Language : Japanese
Default : Yes
Forced : No

Audio #1
ID : 2
Format : AC-3
Format/Info : Audio Coding 3
Mode extension : CM (complete main)
Format settings, Endianness : Big
Codec ID : A_AC3
Duration : 1h 55mn
Bit rate mode : Constant
Bit rate : 448 Kbps
Channel(s) : 2 channels
Channel positions : Front: L R
Sampling rate : 48.0 KHz
Bit depth : 16 bits
Compression mode : Lossy
Stream size : 370 MiB (9%)
Title : Одноголосый (Azazel)
Language : Russian
Default : Yes
Forced : No

Audio #2
ID : 3
Format : AC-3
Format/Info : Audio Coding 3
Mode extension : CM (complete main)
Format settings, Endianness : Big
Codec ID : A_AC3
Duration : 1h 55mn
Bit rate mode : Constant
Bit rate : 640 Kbps
Channel(s) : 6 channels
Channel positions : Front: L C R, Side: L R, LFE
Sampling rate : 48.0 KHz
Bit depth : 16 bits
Compression mode : Lossy
Stream size : 528 MiB (12%)
Title : Оригинал / Японский
Language : Japanese
Default : No
Forced : No

Text
ID : 4
Format : UTF-8
Codec ID : S_TEXT/UTF8
Codec ID/Info : UTF-8 Plain Text
Title : Русские (полные) (A. Doubinski)
Default : No
Forced : No





   Похожие торренты   Торрент   Размер 
В этой теме нет новых непрочитанных сообщений. Макросс Зеро / Macross Zero (2002) HDRip - Generalfilm

4 | 3

1.47 ГБ

В этой теме нет новых непрочитанных сообщений. Макрос Фронтир ~Крылья Разлуки~ / Macross Frontier ~Sayonara no Tsubasa~ (2011) BDRip 720p | AniFilm

9 | 5

4.73 ГБ

В этой теме нет новых непрочитанных сообщений. Макрос Фронтир ~Крылья Разлуки~ / Macross Frontier ~Sayonara no Tsubasa~ (2011) BDRip 1080p | AniFilm

12 | 4

8.01 ГБ

В этой теме нет новых непрочитанных сообщений. Любовь и другие лекарства / Love and Other Drugs (2010) BDRip 720p от NOLIMITS-TEAM

17 | 8

2.48 ГБ

В этой теме нет новых непрочитанных сообщений. Любовь и прочие обстоятельства / Love and Other Impossible Pursuits / The Other Woman (2009) BDRip 720p от NOLIMITS-TEAM

4 | 2

2.19 ГБ

В этой теме нет новых непрочитанных сообщений. Концерт Дэвида Гилмора / David Gilmour: Remember That Night (2007) BDRip 720p от NOLIMITS-TEAM

86 | 7

3.04 ГБ

В этой теме нет новых непрочитанных сообщений. Ты помнишь? / Remember? (1939) DVDRip-AVC от =Т-Хzona=

3 | 2

1.23 ГБ




Вы не можете начинать темы
Вы не можете отвечать на сообщения
Вы не можете редактировать свои сообщения
Вы не можете удалять свои сообщения
Вы не можете добавлять вложения

Перейти:  
Для Мосгорсуда, Роскомнадзора и рекламодателей: mosgorsud-torrent[собачка]yandex.ru
 Вход
ppkBB3cker v.2 © 2008-2014 @ PPK
[ Time : 0.515s | 15 Queries | GZIP : Off ]

Торрент трекер RUTOR.IN, Не можете зайти на rutor.org? Какой новый адрес рутор? Какое зеркало рутор? Не работает rutor.org и зеркала? Тогда наш торрент специально для вас. Rutor.in неофициальное зеркало rutor. В случае если у Вас заблокирован rutor или вдруг Вы не можете на него зайти, то Вы без труда сможете скачать бесплатно и без рекламы последние новинки кино, игр, сериалов и прочего у нас, на Rutor.in. Не нужно использовать прокси, чтобы зайти на рутор, достаточно воспользоваться нашим ресурсом. Все новые фильмы, игры, сериалы, книги и музыка за 2013 и 2014 годы через торрент бесплатно. Скачивайте фильмы в хорошем качестве, игры для пк, xbox, playstation без регистрации. У нас вы найдете новые Зарубежные сериалы и Русские сериалы 2013, 2014, 2015 годов. Оставайтесь с нами, качайте любимые фильмы, игры, сериалы, книги и музыку.
cron