img image001 image001 image001 image001 image001 image001 image001 image001 image001 image001 image001 image001 image001 image001 image001

Planets Sun Sun Sun
Статистика раздачи
Автор: PriZraK | Размер: 6.07 ГБ | Добавлен: 15 фев 2014
Раздают: 20    Качают: 23
Скачать торрент
Скачать торрент
Описание торрента

СообщениеДобавлено: 15 фев 2014 

Страна: Япония
Год выпуска: 2012 г.
Жанр: приключения, триллер, фантастика,
Категории: киберпанк
Тип: TV
Продолжительность: ТВ (22 эп.), 25 мин.
Режиссер: Сиотани Наоёси
Описание:
1. Действие нового оригинального проекта от студии Production I.G. разворачивается в недалеком будущем, когда стало возможным мгновенно измерить состояние души и личности человека. "Psycho-Pass" или "Психопаспорт" обозначает стандарт, который используется для оценки психологического состояния человека. Главный герой - Синъя Когами, сотрудник правоохранительных органов, на которого возложена задача контролировать преступность в таком мире.

2. Профилактика – основа стабильного общества, а уж профилактика преступлений в очередном мире мрачного будущего поставлена на вполне научную основу. Каждому жителю вживлен прибор, передающий показатели психического здоровья, и если «криминальный индекс» зашкаливает, значит, индивидуума пора лечить, часто свинцовыми пилюлями. Вердикт выносят машины, адвокатов нет, остается только привести приговор в исполнение. Но кто занимается столь грязной и опасной работой? Да такие же потенциальные преступники, только выбравшие правильную сторону и разряжающие напряжение на службе государству. А как еще – ведь овцы на волков не охотятся!
Впрочем, охрана порядка устроена с умом: над ищейками-«палачами» стоят надсмотрщики-инспекторы, которые быстро пресекают эксцессы исполнителя, да и оружие полиции, по идее, не стреляет в лиц с нормальным «психопаспортом». Вот в такую организацию приходит молодая идеалистка, инспектор Аканэ Цунэмори – и быстро убеждается, что реальная жизнь здорово отличается от того, что пишут в книжках и говорят на лекциях. Забыть весь этот вздор советуют опытные коллеги – которых она, кстати, по долгу службы должна держать на мушке. Так работает ли система вообще, или умный человек легко обойдет ее, как и в нашем мире? Это мы рано или поздно узнаем вместе с Аканэ!
© Hollow, World Art

Доп. информация: Релиз GSGroup


Качество: BDRip
Тип релиза: Без хардсаба
Формат видео: MKV
Наличие линковки: Нет
Видео: x264 1280x720 пикс. 23,976 кадр/сек. ~1200 Кбит/сек. 8 бит
Аудио: AAC 192 Кбит/сек 48,0 КГц. 2.0 Язык Русский (в составе контейнера) ; Озвучка: Persona99
Аудио 2: AAC 192 Кбит/сек 48,0 КГц. 2.0 Язык Японский ; Озвучка 2: оригинал
Субтитры: ASS встроенные в составе контейнера, srt внешние. Язык субтитров русский ; Перевод: GMC (Редактор: DeK; Тайм-код/Оформление: nismo; Редактор: Pat-Rica; Переводчик: St_Ranger)
Код:
Общее
Уникальный идентификатор                 : 182315972204942884691330586006440642307 (0x8928C76DEADD6C48B55163728B080703)
Полное имя                               : G:[GSG] Psycho-Pass (BD1280x720 x264 AAC)�3_Psycho-Pass_TV_[Persona99](BD_1280x720_x264_AAC).rus.jap.mkv
Формат                                   : Matroska
Версия формата                           : Version 2
Размер файла                             : 263 Мбайт
Продолжительность                        : 22 м.
Общий поток                              : 1607 Кбит/сек
Дата кодирования                         : UTC 2013-03-02 14:00:32
Программа кодирования                    : mkvmerge v3.2.0 ('Beginnings') built on Feb 12 2010 16:46:17
Библиотека кодирования                   : libebml v0.7.9 + libmatroska v0.8.1

Видео
Идентификатор                            : 1
Формат                                   : AVC
Формат/Информация                        : Advanced Video Codec
Профиль формата                          : High@L4.1
Параметр CABAC формата                   : Да
Параметр ReFrames формата                : 4 кадра
Идентификатор кодека                     : avc1
Идентификатор кодека/Информация          : Advanced Video Coding
Продолжительность                        : 22 м.
Битрейт                                  : 1220 Кбит/сек
Максимальный битрейт                     : 22,2 Мбит/сек
Ширина                                   : 1280 пикселей
Высота                                   : 720 пикселей
Соотношение сторон                       : 16:9
Режим частоты кадров                     : Постоянный
Частота кадров                           : 23,976 кадра/сек
Цветовое пространство                    : YUV
Субдискретизация насыщенности            : 4:2:0
Битовая глубина                          : 8 бит
Тип развёртки                            : Прогрессивная
Бит/(Пиксели*Кадры)                      : 0.055
Размер потока                            : 199 Мбайт (86%)
Библиотека кодирования                   : x264 core 129 r2245 bc13772
Настройки программы                      : cabac=1 / ref=4 / deblock=1:1:1 / analyse=0x3:0x113 / me=umh / subme=6 / psy=1 / psy_rd=0.60:0.00
/ mixed_ref=1 / me_range=16 / chroma_me=1 / trellis=1 / 8x8dct=1 / cqm=0 / deadzone=21,11 / fast_pskip=1 / chroma_qp_offset=-2 / threads=6
 / lookahead_threads=1 / sliced_threads=0 / nr=0 / decimate=1 / interlaced=0 / bluray_compat=0 / constrained_intra=0 / bframes=3 / b_pyramid=2
 / b_adapt=2 / b_bias=0 / direct=3 / weightb=0 / open_gop=0 / weightp=2 / keyint=240 / keyint_min=23 / scenecut=40 / intra_refresh=0
/ rc_lookahead=40 / rc=2pass / mbtree=1 / bitrate=1220 / ratetol=1.0 / qcomp=0.60 / qpmin=10 / qpmax=51 / qpstep=4 / cplxblur=20.0
/ qblur=0.5 / vbv_maxrate=50000 / vbv_bufsize=50000 / nal_hrd=none / ip_ratio=1.40 / aq=1:0.00
Дата кодирования                         : UTC 2013-02-28 00:52:27
Дата пометки                             : UTC 2013-02-28 09:53:46
Default                                  : Да
Forced                                   : Нет

удио
Идентификатор                            : 1
Формат                                   : AAC
Формат/Информация                        : Advanced Audio Codec
Профиль формата                          : LC
Идентификатор кодека                     : 40
Продолжительность                        : 22 м.
Вид битрейта                             : Переменный
Битрейт                                  : 192 Кбит/сек
Максимальный битрейт                     : 205 Кбит/сек
Каналы                                   : 2 канала
Расположение каналов                     : Front: L R
Частота                                  : 48,0 КГц
Метод сжатия                             : С потерями
Размер потока                            : 31,4 Мбайт (99%)
Библиотека кодирования                   : Nero AAC codec 1.5.4.0
Настройки программы                      : -cbr 192000 -lc
Дата кодирования                         : UTC 2013-03-02 12:13:11
Дата пометки                             : UTC 2013-03-02 12:13:47
Заголовок                                : Persona99
Язык                                     : Russian
Default                                  : Да
Forced                                   : Нет

Аудио #2
Идентификатор                            : 3
Формат                                   : AAC
Формат/Информация                        : Advanced Audio Codec
Профиль формата                          : LC
Идентификатор кодека                     : A_AAC
Продолжительность                        : 22 м.
Каналы                                   : 2 канала
Расположение каналов                     : Front: L R
Частота                                  : 48,0 КГц
Метод сжатия                             : С потерями
Язык                                     : Japanese
Default                                  : Нет
Forced                                   : Нет

Текст
Идентификатор                            : 4
Формат                                   : ASS
Идентификатор кодека                     : S_TEXT/ASS
Идентификатор кодека/Информация          : Advanced Sub Station Alpha
Метод сжатия                             : Без потерь
Заголовок                                : ass
Язык                                     : Russian
Default                                  : Нет
Forced                                   : Нет

01. Crime Coefficient
02. Those Capable
03. Rearing Conventions
04. Nobody Knows Your Mask
05. Nobody Knows Your Face
06. Return of the Psychotic Prince
07. Symbolism of Bletilla Striata
08. And Then, Silence
09. Paradise Fruit
10. Methuselah`s Game
11. Saint`s Supper
12. Devil`s Crossroad
13. Invitation from the Abyss
14. Sweet Poison
15. The Town Where Sulfur Falls
16. The Gate to Judgment
17. Iron Heart
18. A Promise Written on Water
19. Transparent Shadow
20. Where Justice Lies
21. Blood-Stained Reward
22. Perfect World


Семпл: http://sendfile.su/860326



   Похожие торренты   Торрент   Размер 
В этой теме нет новых непрочитанных сообщений. Психопаспорт 2 / Psycho-pass 2 [TV] [01-09 из 11] (2014) HDTVRip 720 | Persona99

23 | 4

4.01 ГБ

В этой теме нет новых непрочитанных сообщений. Психопаспорт 2 / Psycho-pass 2 [TV] [01-11 из 11] (2014) HDTVRip 720 | Persona99

122 | 27

4.93 ГБ

В этой теме нет новых непрочитанных сообщений. Психопаспорт 2 / Psycho-pass 2 [TV] [01-07 из 11] (2014) HDTVRip 720 | Persona99

3 | 2

3.07 ГБ

В этой теме нет новых непрочитанных сообщений. Психо-Пасс (Психопаспорт) / Psycho-pass / Psycho-pass 2 [S01-02] (2012-2014) HDTVRip 720p от AniDUB | L2

100 | 82

12.95 ГБ

В этой теме нет новых непрочитанных сообщений. Психо-Пасс / Психопаспорт / Psycho-pass / Psycho-pass 2 [S01-02] (2012-2014) HDTVRip 720p | L2

44 | 57

12.42 ГБ

В этой теме нет новых непрочитанных сообщений. Психопаспорт / Psycho-pass [01-22 из 22] (2012) BDRip | L2

431 | 123

6.68 ГБ

В этой теме нет новых непрочитанных сообщений. Психопаспорт / Psycho-pass [01x01] (2012-2013) BDRip 720p

0 | 8

570.96 МБ




Вы не можете начинать темы
Вы не можете отвечать на сообщения
Вы не можете редактировать свои сообщения
Вы не можете удалять свои сообщения
Вы не можете добавлять вложения

Перейти:  
Для Мосгорсуда, Роскомнадзора и рекламодателей: mosgorsud-torrent[собачка]yandex.ru
 Вход
ppkBB3cker v.2 © 2008-2014 @ PPK
[ Time : 0.050s | 16 Queries | GZIP : Off ]

cron