img image001 image001 image001 image001 image001 image001 image001 image001 image001 image001 image001 image001 image001 image001 image001

Planets Sun Sun Sun
Статистика раздачи
Автор: PriZraK | Размер: 2.07 ГБ | Добавлен: 15 фев 2014
Раздают: 7    Качают: 4
Скачать торрент
Скачать торрент
Описание торрента

СообщениеДобавлено: 15 фев 2014 

Информация о фильме
Название: Лиричная волшебница Наноха [фильм первый]
Оригинальное название: Magical Girl Lyrical Nanoha The Movie 1st
Другие названия: Maho Shojo Lyrical Nanoha The Movie 1st / 魔法少女リリカルなのは The MOVIE 1st
Год выхода: 2010
Жанр: приключения, анимэ
Режиссер: Кусакава Кэйдзё
Автор оригинала: Цудзуки Маки

Описание: Что делать, если твой город, весь твой мир внезапно затянуло в орбиту амбиций, интриг и политических игр неведомых, но явно высших сил? Для 9-летней Нанохи Такамати из тихого городка Уминари ответ ясен: надо драться, а что дальше – бой покажет! Симпатичная рыжая девочка, выросшая в семье мастеров меча и кулинарии, вовсе не растерялась, когда на голову в прямом смысле слова стали сыпаться артефакты забытых миров, могущественные маги и космические миротворцы. Дочь самураев быстро сориентировалась и нашла свое место в новом раскладе, попутно подружившись и с союзниками, и с соперниками. Ибо лейтмотив сюжета очень прост – с Нанохой лучше дружить!

Фильм не просто излагает события первого сезона через призму современной графики, но и открывает новые грани в прошлом и настоящем полюбившихся героев. Земные пейзажи и магические битвы, фантастические замки и звездные корабли – только сейчас фантазия авторов вселенной Нанохи получила достойное воплощение на большом экране!

Выпущено: Япония
Продолжительность: 02:10:45
Перевод: Любительский (одноголосый закадровый) [Persona99]

Файл
Формат: MKV
Качество: BDRip
Видео кодек: AVC/H.264
Видео: 848x480, 23.976fps, 1600 Kb/s
Звук: 48KHz, AC3, 2ch, 320 Kb/s | Rus
Звук: 48KHz, AC3, 2ch, 320 Kb/s | JAP
Субтитры от Eternal HARO | Русские
Субтитры от Hollow & Obelikx | Русские

General
Format : Matroska
File size : 2.07 GiB
Duration : 2h 10mn
Overall bit rate : 2 275 Kbps
Encoded date : UTC 2011-08-24 12:10:12
Writing application : mkvmerge v4.3.0 ('Escape from the Island') сборка от Sep 5 2010 10:30:51
Writing library : libebml v1.0.0 + libmatroska v1.0.0

Video
ID : 1
Format : AVC
Format/Info : Advanced Video Codec
Format profile : High@L4.1
Format settings, CABAC : Yes
Format settings, ReFrames : 4 frames
Muxing mode : Header stripping
Codec ID : V_MPEG4/ISO/AVC
Duration : 2h 10mn
Bit rate : 1 590 Kbps
Width : 848 pixels
Height : 480 pixels
Display aspect ratio : 16:9
Frame rate : 23.976 fps
Color space : YUV
Chroma subsampling : 4:2:0
Bit depth : 8 bits
Scan type : Progressive
Bits/(Pixel*Frame) : 0.163
Stream size : 1.45 GiB (70%)
Title : 480p by Yashats
Writing library : x264 core 98 r1649 c54c47d
Encoding settings : cabac=1 / ref=4 / deblock=1:-2:-2 / analyse=0x3:0x133 / me=umh / subme=9 / psy=1 / psy_rd=0.80:0.00 / mixed_ref=1 / me_range=32 / chroma_me=1 / trellis=2 / 8x8dct=1 / cqm=0 / deadzone=21,11 / fast_pskip=1 / chroma_qp_offset=-2 / threads=6 / sliced_threads=0 / nr=0 / decimate=0 / interlaced=0 / constrained_intra=0 / bframes=4 / b_pyramid=2 / b_adapt=2 / b_bias=0 / direct=3 / weightb=1 / weightp=2 / keyint=250 / keyint_min=25 / scenecut=40 / intra_refresh=0 / rc_lookahead=40 / rc=crf / mbtree=1 / crf=16.0 / qcomp=0.70 / qpmin=10 / qpmax=20 / qpstep=4 / ip_ratio=1.40 / aq=2:0.90
Language
: Japanese
Audio #1
ID : 2
Format : AC-3
Format/Info : Audio Coding 3
Mode extension : CM (complete main)
Muxing mode : Header stripping
Codec ID : A_AC3
Duration : 2h 10mn
Bit rate mode : Constant
Bit rate : 320 Kbps
Channel(s) : 2 channels
Channel positions : Front: L R
Sampling rate : 48.0 KHz
Bit depth : 16 bits
Compression mode : Lossy
Stream size : 298 MiB (14%)
Title : Persona99
Language
: Russian
Audio #2
ID : 3
Format : AC-3
Format/Info : Audio Coding 3
Mode extension : CM (complete main)
Muxing mode : Header stripping
Codec ID : A_AC3
Duration : 2h 10mn
Bit rate mode : Constant
Bit rate : 320 Kbps
Channel(s) : 2 channels
Channel positions : Front: L R
Sampling rate : 48.0 KHz
Bit depth : 16 bits
Compression mode : Lossy
Stream size : 298 MiB (14%)
Title : Japanese
Language : Japanese




   Похожие торренты   Торрент   Размер 
В этой теме нет новых непрочитанных сообщений. Маленькая волшебница / Волшебная девочка / Magical Girl (2014) HDRip | A

268 | 9

1.46 ГБ

В этой теме нет новых непрочитанных сообщений. Персона 3 (фильм первый) / Persona 3 the Movie: Spring of Birth [Movie] (2013) BDRip 720 | Persona99

137 | 18

1.29 ГБ

В этой теме нет новых непрочитанных сообщений. Персона 3 (фильм первый) / Persona 3 the Movie: Spring of Birth [Movie] (2013) BDRip | Persona99

64 | 10

1.3 ГБ

В этой теме нет новых непрочитанных сообщений. Персона 3 (фильм первый) / Persona 3 the Movie: Spring of Birth [Movie] (2013) BDRip 1080 | Persona99

52 | 22

3.43 ГБ

В этой теме нет новых непрочитанных сообщений. Персона 3 (фильм первый) / Persona 3 the Movie: Spring of Birth [Movie] (2013) BDRip 720p | CactusTeam

12 | 12

1.81 ГБ

В этой теме нет новых непрочитанных сообщений. Космический крейсер Ямато (фильм первый) / Space Battleship Yamato: The Movie [Movie] (1977) BDRip 720p | L1

41 | 7

8.72 ГБ

В этой теме нет новых непрочитанных сообщений. Сумасшедшие за стеклом: Фильм / Мультреалити: Фильм / The Drawn Together Movie: The Movie! (2010) HDRip

171 | 20

1.37 ГБ




Вы не можете начинать темы
Вы не можете отвечать на сообщения
Вы не можете редактировать свои сообщения
Вы не можете удалять свои сообщения
Вы не можете добавлять вложения

Перейти:  
Для Мосгорсуда, Роскомнадзора и рекламодателей: mosgorsud-torrent[собачка]yandex.ru
 Вход
ppkBB3cker v.2 © 2008-2014 @ PPK
[ Time : 3.550s | 16 Queries | GZIP : On ]

Торрент трекер RUTOR.IN, Не можете зайти на rutor.org? Какой новый адрес рутор? Какое зеркало рутор? Не работает rutor.org и зеркала? Тогда наш торрент специально для вас. Rutor.in неофициальное зеркало rutor. В случае если у Вас заблокирован rutor или вдруг Вы не можете на него зайти, то Вы без труда сможете скачать бесплатно и без рекламы последние новинки кино, игр, сериалов и прочего у нас, на Rutor.in. Не нужно использовать прокси, чтобы зайти на рутор, достаточно воспользоваться нашим ресурсом. Все новые фильмы, игры, сериалы, книги и музыка за 2013 и 2014 годы через торрент бесплатно. Скачивайте фильмы в хорошем качестве, игры для пк, xbox, playstation без регистрации. У нас вы найдете новые Зарубежные сериалы и Русские сериалы 2013, 2014, 2015 годов. Оставайтесь с нами, качайте любимые фильмы, игры, сериалы, книги и музыку.
cron