img image001 image001 image001 image001 image001 image001 image001 image001 image001 image001 image001 image001 image001 image001 image001

Planets Sun Sun Sun
Статистика раздачи
Автор: PriZraK | Размер: 3.44 ГБ | Добавлен: 15 фев 2014
Раздают: 6    Качают: 3
Скачать торрент
Скачать торрент
Описание торрента

СообщениеДобавлено: 15 фев 2014 

Страна: Япония
Год выпуска: 2010 г.
Жанр: приключения, комедия
Тип: Special
Продолжительность: ТВ-спэшл (12 эп.), 25 мин.
Режиссер: Хирано Тосики
Студия: TMS

Описание:
Чёрная Организация не оставляет в живых ни одного свидетеля. Всемирно известный маг Куроба Тойчи также погиб от её невидимой руки и, само собой, почти никто не знает об этом, даже его сын, Кайто Куроба. Однако, вскоре ему предстоит узнать истинную причину смерти отца и поквитаться с преступниками.

Доп. информация:
спин-офф "Детектива Конана"

Релиз GSGroup



Качество: HDTVRip
Тип релиза: Без хардсаба
Формат видео: AVI
Совместимость с бытовыми плеерами: Да
Видео: XviD, 704x396, 23,976 кадр/сек, 1280 Кбит/сек 8 бит
Аудио 1: AC-3, 48,0 КГц, 192 Кбит/сек, 2 канала Язык Русский (в составе контейнера) ; Озвучка: (Любительский одноголосый) Persona99
Аудио 2: AC-3, 48,0 КГц, 192 Кбит/сек, 2 канала Язык Японский ; Озвучка 2: оригинал
Субтитры: ass, srt, внешние Язык субтитров русский ; Перевод: серии 1-8 Перевод песен: AlenFuns[Dreamers Team]; Переводчик/Тайм-код: Hitsugaya936[Hajime]; Редактор/Тайм-код/Оформление: powerwar ; Переводчик/Редактор/Тайм-код/Оформление: Smarter
серия 9 ShinkaDan ; 10-12 donchanin
Код:
Общее
Полное имя                               : [GSG] Magic Kaito�1_Magic_Kaito_TV_[Persona99] (704x396.XviD.AC3).rus.jap.avi
Формат                                   : AVI
Формат/Информация                        : Audio Video Interleave
Размер файла                             : 285 Мбайт
Продолжительность                        : 23 м.
Общий поток                              : 1678 Кбит/сек
Программа кодирования                    : VirtualDubMod 1.5.10.2 (build 2540/release)
Библиотека кодирования                   : VirtualDubMod build 2540/release

Видео
Идентификатор                            : 0
Формат                                   : MPEG-4 Visual
Профиль формата                          : Advanced Simple@L5
Параметр BVOP формата                    : 2
Параметр QPel формата                    : Нет
Параметр GMC формата                     : Без точки перехода
Параметр матрицы формата                 : Default (H.263)
Идентификатор кодека                     : XVID
Идентификатор кодека/Подсказка           : XviD
Продолжительность                        : 23 м.
Битрейт                                  : 1280 Кбит/сек
Ширина                                   : 704 пикселя
Высота                                   : 396 пикселей
Соотношение сторон                       : 16:9
Частота кадров                           : 23,976 кадра/сек
Цветовое пространство                    : YUV
Субдискретизация насыщенности            : 4:2:0
Битовая глубина                          : 8 бит
Тип развёртки                            : Прогрессивная
Метод сжатия                             : С потерями
Бит/(Пиксели*Кадры)                      : 0.191
Размер потока                            : 217 Мбайт (76%)
Библиотека кодирования                   : XviD 1.2.1 (UTC 2008-12-04)

Аудио #1
Идентификатор                            : 1
Формат                                   : AC-3
Формат/Информация                        : Audio Coding 3
Расширение режима                        : CM (complete main)
Параметр Endianness формата              : Big
Идентификатор кодека                     : 2000
Продолжительность                        : 23 м.
Вид битрейта                             : Постоянный
Битрейт                                  : 192 Кбит/сек
Каналы                                   : 2 канала
Расположение каналов                     : Front: L R
Частота                                  : 48,0 КГц
Битовая глубина                          : 16 бит
Метод сжатия                             : С потерями
Размер потока                            : 32,6 Мбайт (11%)
Выравнивание                             : Разделение по промежуткам
Продолжительность промежутка             : 42  мс. (1,00 видеокадр)
Время предзагрузки промежутка            : 500  мс.

Аудио #2
Идентификатор                            : 2
Формат                                   : AC-3
Формат/Информация                        : Audio Coding 3
Расширение режима                        : CM (complete main)
Параметр Endianness формата              : Big
Идентификатор кодека                     : 2000
Продолжительность                        : 23 м.
Вид битрейта                             : Постоянный
Битрейт                                  : 192 Кбит/сек
Каналы                                   : 2 канала
Расположение каналов                     : Front: L R
Частота                                  : 48,0 КГц
Битовая глубина                          : 16 бит
Метод сжатия                             : С потерями
Размер потока                            : 32,6 Мбайт (11%)
Выравнивание                             : Разделение по промежуткам
Продолжительность промежутка             : 42  мс. (1,00 видеокадр)
Время предзагрузки промежутка            : 500  мс.

01. Rebirth of the Phantom Thief (17.04.2010)
02. Kaitou Kid's Busy Date (06.08.2011)
03. The Princess Likes Magic a Lot (13.08.2011)
04. The Witch Doesn't Shed Tears (24.09.2011)
05. The Blue Birthday of Fate (29.10.2011)
06. Love on the Ski Slope on Christmas Eve (24.12.2011)
07. Magnificent Rivals (04.08.2012)
08. Red Tear Secret (11.08.2012)
09. Witch, Detective and Phantom Thief (29.09.2012)
10. Recollection`s Golden Eye(03.11.2012)
11. The Tearful Crystal Mother(22.12.2012)
12. Tears of Love for the Dark Knight(29.12.2012)


Семпл: http://sendfile.su/862473



   Похожие торренты   Торрент   Размер 
В этой теме нет новых непрочитанных сообщений. Кайто Кид - вор-фантом! / Волшебник Кайто / Magic Kaito [TV Special] (2010-2012) HDTVRip 720 | Persona99

20 | 11

3.91 ГБ

В этой теме нет новых непрочитанных сообщений. Волшебник Кайто 1412 / Magic Kaito 1412 / Кайто Кид - вор-фантом! [TV] [01-24 из 24] (2014) HDTVRip 720 | Persona99

57 | 19

7.47 ГБ

В этой теме нет новых непрочитанных сообщений. Волшебник Кайто 1412 / Magic Kaito 1412 / Кайто Кид - вор-фантом! [TV] [01-10 из 24] (2014) HDTVRip 720 | Persona99

9 | 2

3.06 ГБ

В этой теме нет новых непрочитанных сообщений. Волшебник Кайто 1412 / Magic Kaito 1412 / Кайто Кид - вор-фантом! [TV] [01-05 из 24] (2014) HDTVRip 720 | Persona99

4 | 6

1.59 ГБ

В этой теме нет новых непрочитанных сообщений. Волшебник Кайто - Дело 1412 / Волшебник Кайто 1412 / Magic Kaito 1412 [TV] [01 из 24] (2014) HDTVRip 720p | LE-Production

7 | 7

1.06 ГБ

В этой теме нет новых непрочитанных сообщений. Волшебник Кайто - Дело 1412 / Волшебник Кайто 1412 / Magic Kaito 1412 [TV] [01 из 24] (2014) HDTVRip 720p | LE-Production

14 | 5

298.6 МБ

В этой теме нет новых непрочитанных сообщений. Волшебник Кайто 1412 / Magic Kaito 1412 [01-02 из 24] (2014) HDTVRip 720p | L2

29 | 7

562.56 МБ




Вы не можете начинать темы
Вы не можете отвечать на сообщения
Вы не можете редактировать свои сообщения
Вы не можете удалять свои сообщения
Вы не можете добавлять вложения

Перейти:  
Для Мосгорсуда, Роскомнадзора и рекламодателей: mosgorsud-torrent[собачка]yandex.ru
 Вход
ppkBB3cker v.2 © 2008-2014 @ PPK
[ Time : 0.574s | 15 Queries | GZIP : Off ]

Торрент трекер RUTOR.IN, Не можете зайти на rutor.org? Какой новый адрес рутор? Какое зеркало рутор? Не работает rutor.org и зеркала? Тогда наш торрент специально для вас. Rutor.in неофициальное зеркало rutor. В случае если у Вас заблокирован rutor или вдруг Вы не можете на него зайти, то Вы без труда сможете скачать бесплатно и без рекламы последние новинки кино, игр, сериалов и прочего у нас, на Rutor.in. Не нужно использовать прокси, чтобы зайти на рутор, достаточно воспользоваться нашим ресурсом. Все новые фильмы, игры, сериалы, книги и музыка за 2013 и 2014 годы через торрент бесплатно. Скачивайте фильмы в хорошем качестве, игры для пк, xbox, playstation без регистрации. У нас вы найдете новые Зарубежные сериалы и Русские сериалы 2013, 2014, 2015 годов. Оставайтесь с нами, качайте любимые фильмы, игры, сериалы, книги и музыку.