img image001 image001 image001 image001 image001 image001 image001 image001 image001 image001 image001 image001 image001 image001 image001

Planets Sun Sun Sun
Статистика раздачи
Автор: PriZraK | Размер: 2.73 ГБ | Добавлен: 15 фев 2014
Раздают: 97    Качают: 8
Скачать торрент
Скачать торрент
Описание торрента

СообщениеДобавлено: 15 фев 2014 

Информация о фильме
Название: Киборг 009 / 009 король: Киборг
Оригинальное название: 009 Re: Cyborg
Год выхода: 2012
Жанр: приключения
Режиссер: Камияма Кэндзи

О фильме: Современная история 2013 года.
В Лондоне, Москве, Берлине, Нью-Йорке одновременно произошло несколько взрывов; большие небоскрёбы в них рухнули один за другим. Неожиданная атака террористов повергла мир в панику. В прошлом, когда мир однажды уже находился в кризисе, было девять киборгов-воинов, которые спасли его от гибели.
Доктор Гилмор, являющийся их создателем, снова пытается собрать свою команду, члены которой к этому времени находятся каждый на своей родине.
Кто стоит за всеми этими терактами? С кем предстоит им бороться на этот раз?
Им вновь вернут память, которая была стёрта, после последних событий. И как только это случится, отряд Zero Zero возрождённых киборгов, начнёт битву со всемирным злом.


Продолжительность: полнометражный фильм, 01:43:28
Перевод: Любительский (многоголосый) [LE-Production] & [Anilibria]
Озвучка: loster01 & Emeri & Shoker & GreyMoon
Субтитры: русские (полные)
Хардсаб: отсутствует
Перевод на русский: Shadow_Man | Энкод: LE-Production

Файл
Кодек: MKV (H.264)
Качество: BDRip 720p
Видео: 1280 x 720 (16:9) at 23.976 fps, AVC (x264), High@L4.0, ~2500 Kbps avg, 0.113 bit/pixel, 8 bit
Звук:
Аудио #1 RUS - 48 kHz, AC3 Dolby Digital, 3/2 (L,C,R,l,r) + LFE ch, ~640.00 kbps avg
Аудио #2 JAP - 48 kHz, AC3 Dolby Digital, 3/2 (L,C,R,l,r) + LFE ch, ~640.00 kbps avg

Семпл

Общее
Полное имя : [LE-Production_&_Anilibria]_009_RE_CYBORG_[BDRip]_[RUS_JAP_SUB]_[1280x720_x264]_[loster01_&_Emeri_&_Shoker_&_GreyMoon].mkv
Формат : Matroska
Размер файла : 2,73 Гбайт
Продолжительность : 1 ч. 43 м.
Общий поток : 3782 Кбит/сек
Название фильма : LE-Production
Дата кодирования : UTC 2013-08-16 13:14:15
Программа кодирования : mkvmerge v6.0.0 ('Coming Up For Air') built on Jan 20 2013 09:52:00
Библиотека кодирования : libebml v1.3.0 + libmatroska v1.4.0

Видео
Идентификатор : 1
Формат : AVC
Формат/Информация : Advanced Video Codec
Профиль формата : High@L4.0
Параметр CABAC формата : Да
Параметр ReFrames формата : 6 кадры
Идентификатор кодека : V_MPEG4/ISO/AVC
Продолжительность : 1 ч. 43 м.
Битрейт : 2500 Кбит/сек
Ширина : 1280 пикс.
Высота : 720 пикс.
Соотношение сторон : 16:9
Частота кадров : 23,976 кадр/сек
Цветовое пространство : YUV
Подвыборка цветности : 4:2:0
Битовая глубина : 8 бит
Тип развёртки : Прогрессивная
Бит/(Пиксели*Кадры) : 0.113
Размер потока : 1,75 Гбайт (64%)
Заголовок : LE-Production
Библиотека кодирования : x264 core 119 r2106 07efeb4
Настройки программы : cabac=1 / ref=6 / deblock=1:1:1 / analyse=0x3:0x133 / me=umh / subme=7 / psy=1 / psy_rd=0.40:0.00 / mixed_ref=1 / me_range=16 / chroma_me=1 / trellis=2 / 8x8dct=1 / cqm=0 / deadzone=21,11 / fast_pskip=0 / chroma_qp_offset=-2 / threads=3 / sliced_threads=0 / nr=0 / decimate=1 / interlaced=0 / bluray_compat=0 / constrained_intra=0 / bframes=5 / b_pyramid=2 / b_adapt=2 / b_bias=0 / direct=3 / weightb=1 / open_gop=0 / weightp=2 / keyint=250 / keyint_min=23 / scenecut=40 / intra_refresh=0 / rc_lookahead=50 / rc=2pass / mbtree=1 / bitrate=2500 / ratetol=1.0 / qcomp=0.60 / qpmin=0 / qpmax=69 / qpstep=4 / cplxblur=20.0 / qblur=0.5 / ip_ratio=1.40 / aq=1:0.60
Язык : Russian

Аудио #1
Идентификатор : 2
Формат : AC-3
Формат/Информация : Audio Coding 3
Расширение режима : CM (complete main)
Идентификатор кодека : A_AC3
Продолжительность : 1 ч. 43 м.
Вид битрейта : Постоянный
Битрейт : 640 Кбит/сек
Канал(ы) : 6 канала(ов)
Расположение каналов : Front: L C R, Side: L R, LFE
Частота : 48,0 КГц
Битовая глубина : 16 бит
Метод сжатия : С потерями
Размер потока : 474 Мбайт (17%)
Заголовок : LE-Production & Anilibria(loster01, Emeri, Shoker & GreyMoon)
Язык : Russian

Аудио #2
Идентификатор : 3
Формат : AC-3
Формат/Информация : Audio Coding 3
Расширение режима : CM (complete main)
Идентификатор кодека : A_AC3
Продолжительность : 1 ч. 43 м.
Вид битрейта : Постоянный
Битрейт : 640 Кбит/сек
Канал(ы) : 6 канала(ов)
Расположение каналов : Front: L C R, Side: L R, LFE
Частота : 48,0 КГц
Битовая глубина : 16 бит
Метод сжатия : С потерями
Размер потока : 474 Мбайт (17%)
Язык : Japanese

Текст
Идентификатор : 4
Формат : UTF-8
Идентификатор кодека : S_TEXT/UTF8
Идентификатор кодека/Информация : UTF-8 Plain Text
Заголовок : Shadow_Man
Язык : Russian





   Похожие торренты   Торрент   Размер 
В этой теме нет новых непрочитанных сообщений. 009 король: Киборг / 009 Re: Cyborg (2012) BDRip 1080p от Ash61 | 3D-Video | halfOU | L

66 | 25

4.15 ГБ

В этой теме нет новых непрочитанных сообщений. Киборг / Cyborg (1989) BDRip 720p

39 | 12

10 ГБ

В этой теме нет новых непрочитанных сообщений. Киборг / Cyborg (1989) BDRip 720p

98 | 26

3.85 ГБ

В этой теме нет новых непрочитанных сообщений. Киборг / Cyborg (1989) HDTVRip 720p

9 | 3

4.37 ГБ

В этой теме нет новых непрочитанных сообщений. Киборг / Cyborg (1989) HDTVRip 720p от FLINTFILMS

0 | 5

2.18 ГБ

В этой теме нет новых непрочитанных сообщений. Киборг / Cyborg (1989) BDRip от HQCLUB

72 | 23

1.45 ГБ

В этой теме нет новых непрочитанных сообщений. Киборг / Cyborg (1989) BDRip-AVC от 0ptimus | P, P2, A

13 | 24

2.8 ГБ




Вы не можете начинать темы
Вы не можете отвечать на сообщения
Вы не можете редактировать свои сообщения
Вы не можете удалять свои сообщения
Вы не можете добавлять вложения

Перейти:  
Для Мосгорсуда, Роскомнадзора и рекламодателей: mosgorsud-torrent[собачка]yandex.ru
 Вход
ppkBB3cker v.2 © 2008-2014 @ PPK
[ Time : 0.045s | 17 Queries | GZIP : Off ]

Торрент трекер RUTOR.IN, Не можете зайти на rutor.org? Какой новый адрес рутор? Какое зеркало рутор? Не работает rutor.org и зеркала? Тогда наш торрент специально для вас. Rutor.in неофициальное зеркало rutor. В случае если у Вас заблокирован rutor или вдруг Вы не можете на него зайти, то Вы без труда сможете скачать бесплатно и без рекламы последние новинки кино, игр, сериалов и прочего у нас, на Rutor.in. Не нужно использовать прокси, чтобы зайти на рутор, достаточно воспользоваться нашим ресурсом. Все новые фильмы, игры, сериалы, книги и музыка за 2013 и 2014 годы через торрент бесплатно. Скачивайте фильмы в хорошем качестве, игры для пк, xbox, playstation без регистрации. У нас вы найдете новые Зарубежные сериалы и Русские сериалы 2013, 2014, 2015 годов. Оставайтесь с нами, качайте любимые фильмы, игры, сериалы, книги и музыку.
cron