img image001 image001 image001 image001 image001 image001 image001 image001 image001 image001 image001 image001 image001 image001 image001

Planets Sun Sun Sun
Статистика раздачи
Автор: PriZraK | Размер: 4.85 ГБ | Добавлен: 16 фев 2014
Раздают: 0    Качают: 6
Скачать торрент
Скачать торрент
Описание торрента

СообщениеДобавлено: 16 фев 2014 

Страна: Япония
Год выпуска: 2011 г.
Жанр: приключения, этти
Тип: TV
Продолжительность: ТВ (12 эп.), 25 мин.
Режиссер: Ватанабэ Такаси
Студия: ACGT

Описание:
В недалеком, но мрачном будущем на Землю начинают нашествие ангелоподобные пришельцы Нова. Сражаться с ними могут лишь генетически модифицированные девушки, которых зовут Пандорами. Надежды человечества тренируются в военной академии, где кандидаток со всего мира учат силой мысли вызывать оружие и доспехи, а потом применять их на практике. Разумеется, порядки там суровые, иерархия жесткая, и агрессивные юные особы постоянно бьются между собой, чтобы получить порядковый номер повыше. Таков женский коллектив, где многим важнее подставить ненавистную соперницу, а не мир спасти. Кроме того, сила и репутация дают Пандоре дополнительные привилегии.
Дело в том, что для формирования полноценной боевой единицы воительницы должны заключить контракт с парнем, получающим способность к «заморозке» - остановке противника, что дает шанс победить Нова. Для контракта нужны привязанность, эмоциональное единение, потому шансы ярких и привлекательных девушек всегда выше. Проблема же в том, что первая ученица, красавица Сателлайзер Л. Бриджит, никого к себе не подпускает, заработав кличку Неприкасаемая Королева. И тут внезапно на нее в прямом смысле слова бросается новичок по имени Кадзуя Аой. Что это – суицид или завязка сюжета? А вы еще сомневаетесь?!
© Hollow, World Art

Доп. информация:
Релиз GSGroup


Эта серия состоит из:
#1 Заморозка [ТВ-1] - ТВ (12 эп. + 6 спэшлов), адаптация манги, 2011
#2 Заморозка [ТВ-2] - ТВ (>12 эп.), продолжение, 2013

Качество: BDRip
Формат видео: mkv
Видео: x264, 852x480, ~2200 Kbps, 23.976 fps
Аудио 1: AC-3, 2 канала, 48 KHz, 192 kbps Язык Русский (в составе контейнера) ; Озвучка: одноголосая Persona99
Аудио 2: AVorbis, 48000Hz, 256 Kbps, 2ch Язык Японский ; Озвучка 2: оригинал
Субтитры:
1. Hollow & Obelikx, Язык: русский.
2. Fratelli & Dreamers Team. Язык: русский.
3. Eng Sub

Код:
Общее
Уникальный идентификатор                 : 177945795830281616725342453714687967127 (0x85DF1D1943605877B197C97C38313F97)
Полное имя                               : Freezing 2011 [BD 480p]Freezing - 03 [Persona99](BD 852x480 x264).rus.jpn.mkv
Формат                                   : Matroska
Версия формата                           : Version 2
Размер файла                             : 331 Мбайт
Продолжительность                        : 23 м.
Режим общего битрейта                    : Переменный
Общий поток                              : 1955 Кбит/сек
Дата кодирования                         : UTC 2013-10-08 07:32:37
Программа кодирования                    : mkvmerge v3.4.0 ('Rapunzel') built on May 15 2010 09:38:20
Библиотека кодирования                   : libebml v0.8.0 + libmatroska v0.9.0

Видео
Идентификатор                            : 1
Формат                                   : AVC
Формат/Информация                        : Advanced Video Codec
Профиль формата                          : High@L4.0
Параметр CABAC формата                   : Да
Параметр ReFrames формата                : 16 кадров
Идентификатор кодека                     : V_MPEG4/ISO/AVC
Продолжительность                        : 23 м.
Битрейт                                  : 1468 Кбит/сек
Ширина                                   : 852 пикселя
Высота                                   : 480 пикселей
Соотношение сторон                       : 16:9
Режим частоты кадров                     : Постоянный
Частота кадров                           : 23,976 кадра/сек
Цветовое пространство                    : YUV
Субдискретизация насыщенности            : 4:2:0
Битовая глубина                          : 8 бит
Тип развёртки                            : Прогрессивная
Бит/(Пиксели*Кадры)                      : 0.150
Размер потока                            : 249 Мбайт (75%)
Библиотека кодирования                   : x264 core 100 r1659 57b2e56
Настройки программы                      : cabac=1 / ref=16 / deblock=1:0:0 / analyse=0x3:0x113 / me=umh / subme=9 / psy=1 / psy_rd=0.80:0.00 / mixed_ref=1 / me_range=24 / chroma_me=1 / trellis=2 / 8x8dct=1 / cqm=0 / deadzone=21,11 / fast_pskip=0 / chroma_qp_offset=-2 / threads=1 / sliced_threads=0 / nr=0 / decimate=1 / interlaced=0 / constrained_intra=0 / bframes=10 / b_pyramid=2 / b_adapt=2 / b_bias=0 / direct=1 / weightb=1 / open_gop=0 / weightp=2 / keyint=250 / keyint_min=25 / scenecut=40 / intra_refresh=0 / rc_lookahead=60 / rc=crf / mbtree=1 / crf=16.0 / qcomp=0.80 / qpmin=10 / qpmax=51 / qpstep=4 / ip_ratio=1.40 / aq=1:1.00
Default                                  : Да
Forced                                   : Нет

Аудио #1
Идентификатор                            : 2
Формат                                   : AC-3
Формат/Информация                        : Audio Coding 3
Расширение режима                        : CM (complete main)
Параметр Endianness формата              : Big
Идентификатор кодека                     : A_AC3
Продолжительность                        : 23 м.
Вид битрейта                             : Постоянный
Битрейт                                  : 192 Кбит/сек
Каналы                                   : 2 канала
Расположение каналов                     : Front: L R
Частота                                  : 48,0 КГц
Битовая глубина                          : 16 бит
Метод сжатия                             : С потерями
Размер потока                            : 32,5 Мбайт (10%)
Заголовок                                : Persona99
Язык                                     : Russian
Default                                  : Да
Forced                                   : Нет

Аудио #2
Идентификатор                            : 3
Формат                                   : Vorbis
Параметр Floor формата                   : 1
Идентификатор кодека                     : A_VORBIS
Продолжительность                        : 23 м.
Вид битрейта                             : Переменный
Битрейт                                  : 256 Кбит/сек
Каналы                                   : 2 канала
Частота                                  : 48,0 КГц
Метод сжатия                             : С потерями
Размер потока                            : 43,4 Мбайт (13%)
Библиотека кодирования                   : libVorbis (Everywhere) (20100325 (Everywhere))
Язык                                     : Japanese
Default                                  : Нет
Forced                                   : Нет

[color=green]01. Untouchable Queen
02. Pandora Mode
03. Accelerating Turn
04. Tempest Turn
05. She is Rana Linchen
06. Machination
07. Sanction
08. Pandora Queen
09. Godspeed of the East
10. NOVA Form
11. Ambush! Ravensborne Nuclecheode
12. Satellizer Vs. Pandora



Семпл: http://yadi.sk/d/lpfrtDX-B97c8
http://yadi.sk/d/ZyYUwXhlBnsEu



   Похожие торренты   Торрент   Размер 
В этой теме нет новых непрочитанных сообщений. Заморозка / Freezing (Ватанабэ Такаси) [TV] [12 из 12] [без хардсаба] [RUS(ext), JAP+SUB] [Special] [6 из 6] (2011) BDRip 720p | L

64 | 8

11.8 ГБ

В этой теме нет новых непрочитанных сообщений. Заморозка 2 [ТВ] / Freezing Vibration [01-04] (2013) HDTVRip 720 | Persona99

2 | 12

2.17 ГБ

В этой теме нет новых непрочитанных сообщений. Заморозка [ТВ-2] / Freezing Vibration [12+6 из 12+6] (2013) BDRip | L2

45 | 23

4.68 ГБ

В этой теме нет новых непрочитанных сообщений. Заморозка / Freezing Vibration [01-12 из 12] (2013) HDTVRip 720p | L1

43 | 5

4.73 ГБ

В этой теме нет новых непрочитанных сообщений. Заморозка Вибрация / Freezing Vibration [01-06 из 12] (2013) HDTV 720p | L2

1 | 8

2.94 ГБ

В этой теме нет новых непрочитанных сообщений. Ван Пис: Остров Мечты / One Piece Film Z Special: Glorious Island [Special] [1 из 1] (2012) HDRip | Persona99

11 | 3

151.07 МБ

В этой теме нет новых непрочитанных сообщений. Ван Пис: Эпизод Мерри / One Piece: Episode of Merry [Special] (2013) BDRip 720 | Persona99

12 | 2

3 ГБ




Вы не можете начинать темы
Вы не можете отвечать на сообщения
Вы не можете редактировать свои сообщения
Вы не можете удалять свои сообщения
Вы не можете добавлять вложения

Перейти:  
Для Мосгорсуда, Роскомнадзора и рекламодателей: mosgorsud-torrent[собачка]yandex.ru
 Вход
ppkBB3cker v.2 © 2008-2014 @ PPK
[ Time : 0.040s | 15 Queries | GZIP : Off ]

Торрент трекер RUTOR.IN, Не можете зайти на rutor.org? Какой новый адрес рутор? Какое зеркало рутор? Не работает rutor.org и зеркала? Тогда наш торрент специально для вас. Rutor.in неофициальное зеркало rutor. В случае если у Вас заблокирован rutor или вдруг Вы не можете на него зайти, то Вы без труда сможете скачать бесплатно и без рекламы последние новинки кино, игр, сериалов и прочего у нас, на Rutor.in. Не нужно использовать прокси, чтобы зайти на рутор, достаточно воспользоваться нашим ресурсом. Все новые фильмы, игры, сериалы, книги и музыка за 2013 и 2014 годы через торрент бесплатно. Скачивайте фильмы в хорошем качестве, игры для пк, xbox, playstation без регистрации. У нас вы найдете новые Зарубежные сериалы и Русские сериалы 2013, 2014, 2015 годов. Оставайтесь с нами, качайте любимые фильмы, игры, сериалы, книги и музыку.