img image001 image001 image001 image001 image001 image001 image001 image001 image001 image001 image001 image001 image001 image001 image001

Planets Sun Sun Sun
Статистика раздачи
Автор: PriZraK | Размер: 4.37 ГБ | Добавлен: 16 фев 2014
Раздают: 13    Качают: 11
Скачать торрент
Скачать торрент
Описание торрента

СообщениеДобавлено: 16 фев 2014 

Агент Вексилл
Bekushiru: 2077 Nihon sakoku
(2007)
BDRip 1080p [Hi10P] от FREEISLAND


«The dark secret of future Tokyo!»




Год выпуска: 2007
Страна: Япония
Жанр: аниме, мультфильм, фантастика
Продолжительность: 1 ч. 49 м. 49 с.
Перевод: Многоголосый, закадровый ([R5] от Музыкальный центр)
Режиссер: Фумихико Сори
Продюссер: Тосиаки Наказава, Ичиро Такасе, Юмико Йошихара
Сценарий: Харука Ханда, Фумихико Сори
Композитор: Пол Оукенфолд
Студия: Avex Entertainment, CCRE, Oxybot, Shochiku Company, Shogakukan Inc., Shogakukan Production, Tokyo Broadcasting System (TBS), Yahoo Japan

Премьера в мире: 17 мая 2007

- Детям до 13 лет просмотр не желателен


Официальный сайт

Роли озвучивали:
Меиса Куроки (Meisa Kuroki) - Vexille, озвучка, Шосуке Танихара (Shosuke Tanihara) - Leon, озвучка, Ясуко Мацуюки (Yasuko Matsuyuki) - Maria, озвучка, Акио Ютсука (Akio Ôtsuka) - Saito, озвучка, Пак Роми (Pak Romi) - Takashi, озвучка, Сакурай Такахиро (Sakurai Takahiro) - Ryo, озвучка, Морикава Тосиюки (Morikawa Toshiyuki) - Kisaragi, озвучка, Тецуя Какихара (Tetsuya Kakihara) - Taro, озвучка, Такая Курода (Takaya Kuroda) - Zack, озвучка, Такаюки Суго (Takayuki Sugo) - Captain Borg, озвучка, Кэндзи Такахаси (Kenji Takahashi) - Saga, озвучка, Дзиро Саито (Jiro Saitoh) - Chairman Itakura, озвучка

Описание:
Действие фильма происходит в 2077 году. За 10 лет до этого Япония вышла из ООН и отгородилась от мира магнитным полем. Поводом для этого послужила резолюция ООН, которая запретила дальнейшее развитие робототехники и биотехнологий, угрожающих существованию человечества.И вот правительство США посылает в Японию спецподразделение SWORD под командованием женщины по имени Vexille. Задание — узнать, что за эти 10 лет случилось в Стране Восходящего Солнца, где запретные науки развивались абсолютно бесконтрольно. Однако оказывается, что тайны одна за одной скрывают другую и все это ведет к драматическому финалу...

Внимание!

Рип в High 10 Profile, в настоящее время не поддерживается большинством аппаратных проигрывателей.
Для корректного воспроизведения может потребоваться обновление ПО.
Владельцам несовместимого железа просьба не беспокоить, на трекере есть альтернативные релизы.


Качество: BDRip 1080p Hi10P (SSIM: 0.9955593)
Исходник: Blu-Ray Remux
Контейнер: MKV
Видео кодек: x264 High10@L5.1
Аудио кодек: AC-3
Видео: AVC at 5250 Кбит/сек, 1920 x 1080 (1.778) at 23.976 fps
Аудио: AC-3 at 448 Кбит/сек, 6 каналов, 48,0 КГц
Субтитры: русские полные (S_TEXT/ASS)
Навигация по главам: есть

Общее
Уникальный идентификатор : 195042606948891490192217515409470655502 (0x92BBD6F797037999A390D2886EEC0C0E)
Полное имя : Агент Вексилл [Bekushiru 2077 Nihon sakoku] (2007) BDRip-Hi10P 1080p by_F.HD.mkv
Формат : Matroska
Версия формата : Version 4 / Version 2
Размер файла : 4,37 Гбайт
Продолжительность : 1 ч. 49 м.
Общий поток : 5699 Кбит/сек
Название фильма : релиз от FREEISLAND.ORG
Дата кодирования : UTC 2013-10-29 18:29:07
Программа кодирования : mkvmerge v6.5.0 ('Isn't she lovely') built on Oct 20 2013 12:50:05
Библиотека кодирования : libebml v1.3.0 + libmatroska v1.4.1

Видео
Идентификатор : 1
Формат : AVC
Формат/Информация : Advanced Video Codec
Профиль формата : High 10@L5.1
Параметр CABAC формата : Да
Параметр ReFrames формата : 16 кадров
Идентификатор кодека : V_MPEG4/ISO/AVC
Продолжительность : 1 ч. 49 м.
Битрейт : 5250 Кбит/сек
Ширина : 1920 пикселей
Высота : 1080 пикселей
Соотношение сторон : 16:9
Режим частоты кадров : Постоянный
Частота кадров : 23,976 кадра/сек
Цветовое пространство : YUV
Субдискретизация насыщенности : 4:2:0
Битовая глубина : 10 бит
Тип развёртки : Прогрессивная
Бит/(Пиксели*Кадры) : 0.106
Размер потока : 3,94 Гбайт (90%)
Библиотека кодирования : x264 core 138 r2359+704+48 3f879a0 tMod [10-bit@all X86_64]
Настройки программы : cabac=1 / ref=16 / deblock=1:0:1 / analyse=0x3:0x133 / me=umh / subme=11 / psy=1 / fade_compensate=0.00 / psy_rd=1.00:0.05 / mixed_ref=1 / me_range=64 / chroma_me=1 / trellis=2 / 8x8dct=1 / cqm=0 / deadzone=21,11 / fast_pskip=0 / chroma_qp_offset=-3 / threads=12 / lookahead_threads=3 / sliced_threads=0 / nr=0 / decimate=1 / interlaced=0 / bluray_compat=0 / constrained_intra=0 / fgo=0 / bframes=10 / b_pyramid=2 / b_adapt=2 / b_bias=0 / direct=3 / weightb=1 / open_gop=0 / weightp=2 / keyint=272 / keyint_min=20 / scenecut=40 / intra_refresh=0 / rc_lookahead=0 / rc=2pass / mbtree=0 / bitrate=5250 / ratetol=1.0 / qcomp=1.00 / qpmin=0:0:0 / qpmax=48:48:48 / qpstep=4 / cplxblur=20.0 / qblur=0.5 / vbv_maxrate=240000 / vbv_bufsize=240000 / nal_hrd=none / ip_ratio=1.40 / pb_ratio=1.30 / aq=4:0.67 / aq-sensitivity=15.00 / aq-factor=1.00:1.00:1.00 / aq2=1:1.10 / aq2-sensitivity=12.00 / aq2-factor=1.00:1.00:1.00 / aq3=0
Default : Да
Forced : Нет
Основные цвета : BT.709
Характеристики трансфера : BT.709
Коэффициенты матрицы : BT.709

Аудио
Идентификатор : 2
Формат : AC-3
Формат/Информация : Audio Coding 3
Расширение режима : CM (complete main)
Параметр Endianness формата : Big
Идентификатор кодека : A_AC3
Продолжительность : 1 ч. 49 м.
Вид битрейта : Постоянный
Битрейт : 448 Кбит/сек
Каналы : 6 каналов
Расположение каналов : Front: L C R, Side: L R, LFE
Частота : 48,0 КГц
Битовая глубина : 16 бит
Метод сжатия : С потерями
Размер потока : 352 Мбайт (8%)
Заголовок : MVO DVD Land [R5]
Язык : Russian
Default : Да
Forced : Нет

Текст
Идентификатор : 3
Формат : ASS
Идентификатор кодека : S_TEXT/ASS
Идентификатор кодека/Информация : Advanced Sub Station Alpha
Метод сжатия : Без потерь
Заголовок : Full
Язык : Russian
Default : Нет
Forced : Нет

Меню
00:00:00.000 : :01
00:02:20.640 : :02
00:14:05.845 : :03
00:16:35.828 : :04
00:24:36.475 : :05
00:38:33.311 : :06
00:51:17.908 : :07
01:02:25.909 : :08
01:11:38.127 : :09
01:17:25.808 : :10
01:26:23.845 : :11
01:44:49.492 : :12










#1.зелёный#2.красный#3.синий

http://check2pic.ru/compare/32202/



Релиз от:

Если у вас возникают вопросы типа:
-почему у меня есть звук и отсутствует изображение?
-почему у меня рассыпается картинка?
-почему у меня картинка фонит синевой или зеленью?
-зачем и кому всё это нужно?
и тому подобные, читаем FAQ.
ссылка на FAQ запрещена правилами.

По этому, гуглим на тему спойлера (Что такое 10-ти битное видео (High 10 Profile - Hi10P), и как его смотреть?).



   Похожие торренты   Торрент   Размер 
В этой теме нет новых непрочитанных сообщений. Агент Вексилл / Vexille - 2077 Japan National Isolation (2007) BDRip 1080p

22 | 27

8.71 ГБ

В этой теме нет новых непрочитанных сообщений. OST. Агент Вексилл / Vexille [2CD Deluxe Edition] (2007) MP3

0 | 2

346.9 МБ

В этой теме нет новых непрочитанных сообщений. От винта (2012) BDRip 1080p [Hi10P] от FREEISLAND

18 | 2

2.18 ГБ

В этой теме нет новых непрочитанных сообщений. Остров (2006) BDRip 1080p [Hi10P] от FREEISLAND

85 | 4

4.37 ГБ

В этой теме нет новых непрочитанных сообщений. Хаос / Chaos (2005) BDRip 1080p [Hi10P] от FREEISLAND

19 | 16

4.37 ГБ

В этой теме нет новых непрочитанных сообщений. Неудержимые / The Expendables (2010) BDRip 1080p [Hi10P] от FREEISLAND

49 | 8

4.38 ГБ

В этой теме нет новых непрочитанных сообщений. Снежная королева (2012) BDRip 1080p [Hi10P] от FREEISLAND

24 | 5

4.38 ГБ




Вы не можете начинать темы
Вы не можете отвечать на сообщения
Вы не можете редактировать свои сообщения
Вы не можете удалять свои сообщения
Вы не можете добавлять вложения

Перейти:  
Для Мосгорсуда, Роскомнадзора и рекламодателей: mosgorsud-torrent[собачка]yandex.ru
 Вход
ppkBB3cker v.2 © 2008-2014 @ PPK
[ Time : 0.038s | 14 Queries | GZIP : Off ]

Торрент трекер RUTOR.IN, Не можете зайти на rutor.org? Какой новый адрес рутор? Какое зеркало рутор? Не работает rutor.org и зеркала? Тогда наш торрент специально для вас. Rutor.in неофициальное зеркало rutor. В случае если у Вас заблокирован rutor или вдруг Вы не можете на него зайти, то Вы без труда сможете скачать бесплатно и без рекламы последние новинки кино, игр, сериалов и прочего у нас, на Rutor.in. Не нужно использовать прокси, чтобы зайти на рутор, достаточно воспользоваться нашим ресурсом. Все новые фильмы, игры, сериалы, книги и музыка за 2013 и 2014 годы через торрент бесплатно. Скачивайте фильмы в хорошем качестве, игры для пк, xbox, playstation без регистрации. У нас вы найдете новые Зарубежные сериалы и Русские сериалы 2013, 2014, 2015 годов. Оставайтесь с нами, качайте любимые фильмы, игры, сериалы, книги и музыку.