img image001 image001 image001 image001 image001 image001 image001 image001 image001 image001 image001 image001 image001 image001 image001

Planets Sun Sun Sun
Статистика раздачи
Автор: PriZraK | Размер: 4.5 ГБ | Добавлен: 15 фев 2014
Раздают: 52    Качают: 18
Скачать торрент
Скачать торрент
Описание торрента

СообщениеДобавлено: 15 фев 2014 

Информация о фильме
Название: Евангелион 1.11: Ты (не) Один
Оригинальное название: Evangelion 1.11: You Are (Not) Alone
Год выхода: 2007
Жанр: драма, фантастика, меха
Режиссер: Масаюки
В ролях: Мегуми Огата, Мэгуми Хаясибара, Котоно Мицуйси, Юрико Ямагути, Акира Исида, Фумихико Татики, Мотому Киёкава, Мики Нагасава, Такэхито Коясу, Хиро Юки ...

О фильме:
Прошло 15 лет после загадочной глобальной катастрофы, поставившей человечество на грань выживания. Но оставшихся в живых впереди ждут еще более страшные испытания... Землю атакуют "Ангелы", загадочные гигантские существа, появившиеся неизвестно откуда. Единственное оружие на планете, способное им противостоять - роботы серии "Евангелион", созданные при помощи передовых биотехнологий. Правда, сражаться с помощью этих огромных машин способны только те пилоты, которые могут полностью "синхронизировать" себя с роботом и управлять "Евангелионом" как собственным телом. Эти уникальные бойцы обучаются и живут в секретном подземном городе Токио-3, штаб-квартире организации "NERV", возглавляющей защиту Земли от вторжения. Синдзи, Аска и Рей - пилоты, между которыми складываются крайне непростые отношения. Но именно от них зависит судьба планеты и разгадка тайны зловещих "Ангелов"...
© World Art
Первый фильм охватывает эпизоды оригинального сериала с первого по шестой.
Официальный сайт

Страна: Япония
Студия: Studio Khara
Продолжительность: 01:40:00
Перевод:
RU - Дубляж от Reanimedia
UA - Дубляж от UA MAX

Файл
Формат видео:AVI [HWP]
Кодек: XviD MPEG-4
Качество: BDRip
Видео: 720x400, 23,976 fps, ~2500 kbps
Звук:
Rus - AC3, 48,0 KHz ,2 ch STEREO, 192 kbps
Ukr - AC3, 48,0 KHz ,2 ch STEREO, 192 kbps

Профессиональное озвучивание[полное дублирование]:
Reanimedia по заказу Mega-Anime

Ролі дублювали: Ray, Rise, Nika Lenina, Kinatan, Little, Emeri, Barman, Snovyda, Sonata, Kai, Lali
Епізодичні ролі: Ray, Rise, Nika Lenina, Kinatan, Little, Emeri, Barman, Snovyda, Sonata, Trina D, Ledi Margaret, OSLIKt, Nutbar, Balfor, Kolbasa, Mezida, Seimin, Sudzaku, Sephirot, Emeri, Shouske, Roll311, Masha, Mizori, Little, Hotonori, YuraFlash, Vampirus, Azazel, Ikari, Vlad Cherepovskiy

Тайминг: Sephiroth,Ray
Робота зі звуком: Ray

Переклад: Sensetivity,Роман Саломатін
Редагування та адаптація: Русалка,Ray
Збірка BD-релізу: Моя власна
Окрема подяка stark62(Ray) за FLAC-доріжку

Общее
Полное имя : G:UA_MAX[UA MAX] Evangelion Movie [BDrip] [HWP]Evangelion 1.11 You Are (Not) Alone.avi
Формат : AVI
Формат/Информация : Audio Video Interleave
Размер файла : 1,82 Гбайт
Продолжительность : 1 ч. 40 м.
Общий поток : 2580 Кбит/сек
Программа кодирования : VirtualDubMod 1.5.10.2 (build 2540/release)
Библиотека кодирования : VirtualDubMod build 2540/release

Видео
Идентификатор : 0
Формат : MPEG-4 Visual
Профиль формата : Advanced Simple@L5
Параметр BVOP формата : 1
Параметр QPel формата : Нет
Параметр GMC формата : Без точки перехода
Параметр матрицы формата : Выборочная
Идентификатор кодека : XVID
Идентификатор кодека/Подсказка : XviD
Продолжительность : 1 ч. 40 м.
Битрейт : 2182 Кбит/сек
Ширина : 720 пикселей
Высота : 400 пикселей
Соотношение сторон : 16:9
Частота кадров : 23,976 кадра/сек
Цветовое пространство : YUV
Субдискретизация насыщенности : 4:2:0
Битовая глубина : 8 бит
Тип развёртки : Прогрессивная
Метод сжатия : С потерями
Бит/(Пиксели*Кадры) : 0.316
Размер потока : 1,54 Гбайт (85%)
Библиотека кодирования : XviD 1.2.1 (UTC 2008-12-04)

Аудио #1
Идентификатор : 1
Формат : AC-3
Формат/Информация : Audio Coding 3
Расширение режима : CM (complete main)
Параметр Endianness формата : Big
Идентификатор кодека : 2000
Продолжительность : 1 ч. 40 м.
Вид битрейта : Постоянный
Битрейт : 192 Кбит/сек
Каналы : 2 канала
Расположение каналов : Front: L R
Частота : 48,0 КГц
Битовая глубина : 16 бит
Метод сжатия : С потерями
Размер потока : 139 Мбайт (7%)
Выравнивание : Разделение по промежуткам
Продолжительность промежутка : 42 мс. (1,00 видеокадр)
Время предзагрузки промежутка : 500 мс.

Аудио #2
Идентификатор : 2
Формат : AC-3
Формат/Информация : Audio Coding 3
Расширение режима : CM (complete main)
Параметр Endianness формата : Big
Идентификатор кодека : 2000
Продолжительность : 1 ч. 40 м.
Вид битрейта : Постоянный
Битрейт : 192 Кбит/сек
Каналы : 2 канала
Расположение каналов : Front: L R
Частота : 48,0 КГц
Битовая глубина : 16 бит
Метод сжатия : С потерями
Размер потока : 139 Мбайт (7%)
Выравнивание : Разделение по промежуткам
Продолжительность промежутка : 42 мс. (1,00 видеокадр)
Время предзагрузки промежутка : 500 мс.




Информация о фильме
Название: Евангелион 2.22 Ты [Не] Пройдешь
Оригинальное название: Evangelion: 2.22 You Can [Not] Advance
Год выхода: 2009
Жанр: драма, фантастика, меха
Режиссер: Масаюки
В ролях: Котоно Мицуйси, Мегуми Огата, Мэгуми Хаясибара, Юко Миямура, Фумихико Татики, Юрико Ямагути, Маая Сакамото, Мики Нагасава, Коити Ямадера, Мотому Киёкава ...

О фильме:
Прошло 15 лет после загадочной глобальной катастрофы, поставившей человечество на грань выживания. Но оставшихся в живых впереди ждут еще более страшные испытания... Землю атакуют "Ангелы", загадочные гигантские существа, появившиеся неизвестно откуда. Единственное оружие на планете, способное им противостоять - роботы серии "Евангелион", созданные при помощи передовых биотехнологий. Правда, сражаться с помощью этих огромных машин способны только те пилоты, которые могут полностью "синхронизировать" себя с роботом и управлять "Евангелионом" как собственным телом. Эти уникальные бойцы обучаются и живут в секретном подземном городе Токио-3, штаб-квартире организации "NERV", возглавляющей защиту Земли от вторжения. Синдзи, Аска и Рей - пилоты, между которыми складываются крайне непростые отношения. Но именно от них зависит судьба планеты и разгадка тайны зловещих "Ангелов"...
Официальный сайт

Страна: Япония
Студия: Studio Khara
Продолжительность: 01:52:00
Перевод:
RU - SHIZA (Любительский многоголосый закадровый)
UA - UA MAX (Украинский дублированный)

Файл
Формат видео:AVI [HWP]
Кодек: XviD MPEG-4
Качество: BDRip
Видео: 720x400, 23,976 fps, ~1800 kbps
Звук:
Rus - AC3, 48,0 KHz ,2 ch STEREO, 192 kbps
Ukr - AC3, 48,0 KHz ,2 ch STEREO, 192 kbps

Озвучка: многоголосая от SHIZA Project
(участники: NIKITOS, Venera, Azazel & Viki)

Куратор:Ray
-----------------------------------------------
Ролі дублювали: Ray, Rise, Snovyda, Kai, Nika Lenina, Emeri, Lali
Епізодичні ролі: : : Ray, Rise, Milirina, Snovyda, Kai, Nika Lenina, Rusalka, OSLIKT,Barman, Emeri, Shina, Metal, Вiталий Iзмалков, Trina D, Tinko, Faul, Scrap, Zendos, Eladiel, Trouble, Kiara Laine, Kinatan,Mezida, DANTE'S13.

Таймінг & мінус: Ray
Робота зі звуком: Ray
Редагування та адаптація: Ray
Окрема подяка: Deity,Faul,Kai,Chimera,Sonata,Gedet,Little

----
>Переклад:
Таймінг: asuka-joy, Rosetau, Cloud MD
Редактура: Ayanami, Rosetau, Cloud MD
Переклад з японського: Ghost13, asuka-joy.
Переклад пісень: asuka-joy, Cloud MD
Переклад на українську: 6a6ayka-kun

Общее
Полное имя : G:UA_MAX[UA MAX] Evangelion Movie [BDrip] [HWP]Evangelion 2.22 You Can [Not] Advance.avi
Формат : AVI
Формат/Информация : Audio Video Interleave
Размер файла : 1,41 Гбайт
Продолжительность : 1 ч. 52 м.
Общий поток : 1805 Кбит/сек
Программа кодирования : VirtualDubMod 1.5.10.2 (build 2540/release)
Библиотека кодирования : VirtualDubMod build 2540/release

Видео
Идентификатор : 0
Формат : MPEG-4 Visual
Профиль формата : Advanced Simple@L5
Параметр BVOP формата : 1
Параметр QPel формата : Нет
Параметр GMC формата : Без точки перехода
Параметр матрицы формата : Выборочная
Идентификатор кодека : XVID
Идентификатор кодека/Подсказка : XviD
Продолжительность : 1 ч. 52 м.
Битрейт : 1407 Кбит/сек
Ширина : 704 пикселя
Высота : 400 пикселей
Соотношение сторон : 16:9
Частота кадров : 23,976 кадра/сек
Цветовое пространство : YUV
Субдискретизация насыщенности : 4:2:0
Битовая глубина : 8 бит
Тип развёртки : Прогрессивная
Метод сжатия : С потерями
Бит/(Пиксели*Кадры) : 0.208
Размер потока : 1,10 Гбайт (78%)
Библиотека кодирования : XviD 1.2.1 (UTC 2008-12-04)

Аудио #1
Идентификатор : 1
Формат : AC-3
Формат/Информация : Audio Coding 3
Расширение режима : CM (complete main)
Параметр Endianness формата : Big
Идентификатор кодека : 2000
Продолжительность : 1 ч. 52 м.
Вид битрейта : Постоянный
Битрейт : 192 Кбит/сек
Каналы : 2 канала
Расположение каналов : Front: L R
Частота : 48,0 КГц
Битовая глубина : 16 бит
Метод сжатия : С потерями
Размер потока : 154 Мбайт (11%)
Выравнивание : Разделение по промежуткам
Продолжительность промежутка : 42 мс. (1,00 видеокадр)
Время предзагрузки промежутка : 500 мс.

Аудио #2
Идентификатор : 2
Формат : AC-3
Формат/Информация : Audio Coding 3
Расширение режима : CM (complete main)
Параметр Endianness формата : Big
Идентификатор кодека : 2000
Продолжительность : 1 ч. 52 м.
Вид битрейта : Постоянный
Битрейт : 192 Кбит/сек
Каналы : 2 канала
Расположение каналов : Front: L R
Частота : 48,0 КГц
Битовая глубина : 16 бит
Метод сжатия : С потерями
Размер потока : 154 Мбайт (11%)
Выравнивание : Разделение по промежуткам
Продолжительность промежутка : 42 мс. (1,00 видеокадр)
Время предзагрузки промежутка : 500 мс.




Информация о фильме
Название: Евангелион 3.33: Ты (не) Исправишь
Оригинальное название: Evangelion: 3.33 You Can (Not) Redo
Год выхода: 2012
Жанр: фантастика, меха, драма
Режиссер: Анно Хидэаки
В ролях:
Мегуми Огата
Мэгуми Хаясибара
Юко Миямура
Маая Сакамото
Котоно Мицуйси
Акира Исида
Юрико Ямагути
Фумихико Татики
Мотому Киёкава
Такэхито Коясу
...

О фильме:
После событий второго фильма, Икари Синдзи пробуждается в новом мире. Он не понимает, что происходит, но постепенно ему открывается пугающая истина. В результате Синдзи придется снова сражаться с ангелами вместе с неожиданными союзниками, преодолевая сопротивление бывших друзей. И снова судьба бросит его на передовую войны и заставит принимать решение за всё человечество. Что же он выберет в этот раз?
Официальный сайт

Страна: Япония
Студия: Khara
Продолжительность: 01:35:00
Перевод:
RU - Любительский многоголосый закадровый
UA - Украинский дубляж

Файл
Формат видео:AVI [HWP]
Кодек: XviD MPEG-4
Качество: BDRip
Видео: 720x304, 23,976 fps, ~1800 kbps
Звук:
RUS - AC3, 48,0 KHz ,2 ch STEREO, 192 kbps (Erinant, Skyfy, Makers, Lee-Ann, Kashi, Usagi)
UKR - AC3, 48,0 KHz ,2 ch STEREO, 192 kbps (UA MAX)

Про озвучення:
Куратор: Ray (ua max)
Ролі дублювали: Ray, Rise, Snovyda, Nika Lenina, Emeri, Lali, Ната, Анубiс, Матвій, Nesquik, Shina, Sonata
Епізодичні ролі: Ray, Rise, Snovyda, Rusalka, Emeri, Віталій Ізмалков, Eladiel, Sonata

Таймiнг & робота зi звуком & мiнус: Ray
Переклад: Gedet
Редагування: Ray
Постер: Samotar & Ray
Окрема подяка: Evafan & Chimera
Cпонсорування: Ray, Ростислав Королык, Василь Дикан

Ріп: UTW-THORA

Общее
Полное имя : G:UA_MAX[UA MAX] Evangelion Movie [BDrip] [HWP]Evangelion 3.33 You Can (Not) Redo.avi
Формат : AVI
Формат/Информация : Audio Video Interleave
Размер файла : 1,26 Гбайт
Продолжительность : 1 ч. 35 м.
Общий поток : 1892 Кбит/сек
Программа кодирования : VirtualDubMod 1.5.10.2 (build 2540/release)
Библиотека кодирования : VirtualDubMod build 2540/release

Видео
Идентификатор : 0
Формат : MPEG-4 Visual
Профиль формата : Advanced Simple@L5
Параметр BVOP формата : 2
Параметр QPel формата : Нет
Параметр GMC формата : Без точки перехода
Параметр матрицы формата : Default (H.263)
Идентификатор кодека : XVID
Идентификатор кодека/Подсказка : XviD
Продолжительность : 1 ч. 35 м.
Битрейт : 1494 Кбит/сек
Ширина : 720 пикселей
Высота : 304 пикселя
Соотношение сторон : 2,35:1
Частота кадров : 23,976 кадра/сек
Цветовое пространство : YUV
Субдискретизация насыщенности : 4:2:0
Битовая глубина : 8 бит
Тип развёртки : Прогрессивная
Метод сжатия : С потерями
Бит/(Пиксели*Кадры) : 0.285
Размер потока : 1021 Мбайт (79%)
Библиотека кодирования : XviD 1.2.1 (UTC 2008-12-04)

Аудио #1
Идентификатор : 1
Формат : AC-3
Формат/Информация : Audio Coding 3
Расширение режима : CM (complete main)
Параметр Endianness формата : Big
Идентификатор кодека : 2000
Продолжительность : 1 ч. 35 м.
Вид битрейта : Постоянный
Битрейт : 192 Кбит/сек
Каналы : 2 канала
Расположение каналов : Front: L R
Частота : 48,0 КГц
Битовая глубина : 16 бит
Метод сжатия : С потерями
Размер потока : 131 Мбайт (10%)
Выравнивание : Разделение по промежуткам
Продолжительность промежутка : 42 мс. (1,00 видеокадр)
Время предзагрузки промежутка : 500 мс.

Аудио #2
Идентификатор : 2
Формат : AC-3
Формат/Информация : Audio Coding 3
Расширение режима : CM (complete main)
Параметр Endianness формата : Big
Идентификатор кодека : 2000
Продолжительность : 1 ч. 35 м.
Вид битрейта : Постоянный
Битрейт : 192 Кбит/сек
Каналы : 2 канала
Расположение каналов : Front: L R
Частота : 48,0 КГц
Битовая глубина : 16 бит
Метод сжатия : С потерями
Размер потока : 131 Мбайт (10%)
Выравнивание : Разделение по промежуткам
Продолжительность промежутка : 42 мс. (1,00 видеокадр)
Время предзагрузки промежутка : 500 мс.



Релиз от:



   Похожие торренты   Торрент   Размер 
В этой теме нет новых непрочитанных сообщений. Евангелион по-новому [Фильм второй] / Евангелион 2.22 / Evangerion shin gekijôban: Ha / Evangelion: 2.22 You Can [Not] Advance (2009) BDRip от HELLYWOOD

78 | 23

2.18 ГБ

В этой теме нет новых непрочитанных сообщений. Евангелион 1.11: Ты (не) один / Evangelion 1.11: You Are (Not) Alone (2007) BDRip 1080p от UA MAX | D

208 | 3

6.42 ГБ

В этой теме нет новых непрочитанных сообщений. Евангелион 1.11: Ты (не) один / Evangelion Shin Gekijouban: Jo (2007) BDRip 1080p от Leonardo and Scarabey

142 | 13

4.67 ГБ

В этой теме нет новых непрочитанных сообщений. Евангелион 1.11: Ты (не) один / Evangelion Shin Gekijouban: Jo (2007) BDRip 720p от Leonardo and Scarabey

215 | 54

2.42 ГБ

В этой теме нет новых непрочитанных сообщений. Евангелион 3.33: Ты (не) Исправишь / Evangelion: 3.33 You Can (Not) Redo (2012) BDRip 720p от UA MAX

138 | 30

1.65 ГБ

В этой теме нет новых непрочитанных сообщений. Евангелион 3.33: Ты (не) Исправишь / Evangelion: 3.33 You Can (Not) Redo (2012) BDRip 1080p от UA MAX | L

87 | 12

7.97 ГБ

В этой теме нет новых непрочитанных сообщений. Чиби Ева: Евангелион в школе / Puchi Eva: Evangelion@School [01-24 из 24] (2007) WEBRip

9 | 3

492.87 МБ




Вы не можете начинать темы
Вы не можете отвечать на сообщения
Вы не можете редактировать свои сообщения
Вы не можете удалять свои сообщения
Вы не можете добавлять вложения

Перейти:  
Для Мосгорсуда, Роскомнадзора и рекламодателей: mosgorsud-torrent[собачка]yandex.ru
 Вход
ppkBB3cker v.2 © 2008-2014 @ PPK
[ Time : 0.048s | 15 Queries | GZIP : On ]

Торрент трекер RUTOR.IN, Не можете зайти на rutor.org? Какой новый адрес рутор? Какое зеркало рутор? Не работает rutor.org и зеркала? Тогда наш торрент специально для вас. Rutor.in неофициальное зеркало rutor. В случае если у Вас заблокирован rutor или вдруг Вы не можете на него зайти, то Вы без труда сможете скачать бесплатно и без рекламы последние новинки кино, игр, сериалов и прочего у нас, на Rutor.in. Не нужно использовать прокси, чтобы зайти на рутор, достаточно воспользоваться нашим ресурсом. Все новые фильмы, игры, сериалы, книги и музыка за 2013 и 2014 годы через торрент бесплатно. Скачивайте фильмы в хорошем качестве, игры для пк, xbox, playstation без регистрации. У нас вы найдете новые Зарубежные сериалы и Русские сериалы 2013, 2014, 2015 годов. Оставайтесь с нами, качайте любимые фильмы, игры, сериалы, книги и музыку.