img image001 image001 image001 image001 image001 image001 image001 image001 image001 image001 image001 image001 image001 image001 image001

Planets Sun Sun Sun
Статистика раздачи
Автор: PriZraK | Размер: 4.64 ГБ | Добавлен: 16 фев 2014
Раздают: 248    Качают: 20
Скачать торрент
Скачать торрент
Описание торрента

СообщениеДобавлено: 16 фев 2014 

Информация о фильме
Название: Ангельские ритмы!
Оригинальное название: Angel Beats!
Год выхода: 2010
Жанр: приключения, мистика, комедия, драма
Режиссер: Киси Сэйдзи
В ролях:
Кана Ханадзава
Хироши Камия
Бриттни Карбовски
Рёхеи Кимура
Дэвид Матранга
Эмили Невез
Харуми Сакурай
Блейк Шепард
Кори Хартзог
Юмико Кобаяси
...

О фильме:
Главная героиня сериала — девушка с замечательным именем Юри — возглавляет отряд SSS (сокращение от Shinda Sekai Sensen, что в переводе означает Фронт Мира Мёртвых), который целиком и полностью состоит из уже попавших на тот свет людей, которые некогда вели безрассудную жизнь, а теперь восстали против Бога и сражаются со всё еще верными ему ангелами.

Официальный сайт

Страна: Япония
Студия: P.A. Works
Продолжительность: 13 эп. по 25 мин.
Перевод:
RU - Любительский двухголосый закадровый от Scrap & Kedra (RG Genshiken)
UA - Любительский многоголосый закадровый от UA MAX

Файл
Кодек: h.264 - 8bit
Качество: BDRip 720p
Видео: 1280x720, ~ 1300kbps, 23,976 fps
Звук:
RUS : AC3, 48000Hz, 192 Kbps, 2ch
UKR : AC3, 48000Hz, 320 Kbps, 2ch
==============================

Куратор: Ray

Озвучування:Ray & Русалка & Trina D & Emeri & Rise & Snovyda & Nutbar

У епiзодах:Nika Lenina & Trouble & Eladiel

Таймiнг та робота зi звуком:Ray (також дякую за допомогу:Sephiroth & Pauchok & Wetka)

Переклад: Taras93 (1-5) Hoshizora (6-12)

Редагування: Snuryus(1-5),CyrusVorazan(6-12)

Окрема подяка: Deity, Zendos, Rise

======================================================================

====================================================================

Angel Beats 13.5 (UA) (Дублювання)

(группа UA MAX)

-зроблено від фанаря :)

------------------------

Куратор: Ray

Переклад: Arinutin,Nahasaki

Адаптація: Ray

Таймінг та робота зі звуком: Ray

Ролі дублювали: Rise,Ray

Тестер:Doomed13

В епізодах: Snovyda,Trina D,Emeri,Ray,Ikari,Kinatan

Постер:Samotar

==============================

ПIСНI: http://www.ex.ua/view/17281948?r=17281829,14208053
========

Общее
Уникальный идентификатор : 197946625427636582738612899842420874285 (0x94EB2221ECB526F8B088E606B06B9C2D)
Полное имя : G:UA_MAXAngel Beats!Angel Beats! - 01.mkv
Формат : Matroska
Версия формата : Version 2
Размер файла : 352 Мбайт
Продолжительность : 26 м.
Общий поток : 1891 Кбит/сек
Название фильма : Angel Beats, ep.01
Дата кодирования : UTC 2013-11-21 14:54:59
Программа кодирования : mkvmerge v4.2.0 ('No Talking') сборка от Jul 28 2010 18:38:23
Библиотека кодирования : libebml v1.0.0 + libmatroska v1.0.0
Видео
Идентификатор : 1
Формат : AVC
Формат/Информация : Advanced Video Codec
Профиль формата : High@L4.0
Параметр CABAC формата : Да
Параметр ReFrames формата : 6 кадров
Идентификатор кодека : V_MPEG4/ISO/AVC
Продолжительность : 26 м.
Битрейт : 1341 Кбит/сек
Ширина : 1280 пикселей
Высота : 720 пикселей
Соотношение сторон : 16:9
Режим частоты кадров : Постоянный
Частота кадров : 23,976 кадра/сек
Цветовое пространство : YUV
Субдискретизация насыщенности : 4:2:0
Битовая глубина : 8 бит
Тип развёртки : Прогрессивная
Бит/(Пиксели*Кадры) : 0.061
Размер потока : 250 Мбайт (71%)
Default : Да
Forced : Нет
Аудио #1
Идентификатор : 2
Формат : AC-3
Формат/Информация : Audio Coding 3
Расширение режима : CM (complete main)
Параметр Endianness формата : Big
Идентификатор кодека : A_AC3
Продолжительность : 26 м.
Вид битрейта : Постоянный
Битрейт : 192 Кбит/сек
Каналы : 2 канала
Расположение каналов : Front: L R
Частота : 48,0 КГц
Битовая глубина : 16 бит
Метод сжатия : С потерями
Размер потока : 35,8 Мбайт (10%)
Заголовок : [Scrap & Kedra]
Язык : Russian
Default : Да
Forced : Нет
Аудио #2
Идентификатор : 3
Формат : AC-3
Формат/Информация : Audio Coding 3
Расширение режима : CM (complete main)
Параметр Endianness формата : Big
Идентификатор кодека : A_AC3
Продолжительность : 26 м.
Вид битрейта : Постоянный
Битрейт : 320 Кбит/сек
Каналы : 2 канала
Расположение каналов : Front: L R
Частота : 48,0 КГц
Битовая глубина : 16 бит
Метод сжатия : С потерями
Задержка видео : 1 с. 0 мс.
Размер потока : 59,6 Мбайт (17%)
Заголовок : UA MAX
Язык : Ukrainian
Default : Нет
Forced : Нет




Релиз от:
Примечания - Данный релиз предназначен для раздач, которые могут быть воспроизведены на бытовых (внешних / "железных") плеерах и телевизорах, т.е. это HD-HWP.

в 13 серии исправлена укр. дорожка



   Похожие торренты   Торрент   Размер 
В этой теме нет новых непрочитанных сообщений. Ангельские ритмы! / Angel Beats! [01-13] (2010) TVRip

31 | 12

3.57 ГБ

В этой теме нет новых непрочитанных сообщений. Ангельские глазки / Eyes of an Angel (1991) SATRip

3 | 4

1.36 ГБ

В этой теме нет новых непрочитанных сообщений. Глаза ангела / Ангельские глазки / Eyes of an Angel (1991) HDTVRip | P

14 | 2

1.36 ГБ

В этой теме нет новых непрочитанных сообщений. Глаза ангела / Ангельские глазки / Eyes of an Angel (1991) HDTVRip-AVC от ExKinoRay

3 | 35

1.37 ГБ

В этой теме нет новых непрочитанных сообщений. Ангелочек / Ангелочек-мстительница / Ангелочек 3 / Angel / Avenging Angel / Angel III: The Final Chapter (1983-1988) 3xDVD5 от Youtracker|A

0 | 2

12.19 ГБ

В этой теме нет новых непрочитанных сообщений. Ангелочек / Ангелочек-мстительница / Ангелочек 3 / Angel / Avenging Angel / Angel III: The Final Chapter (1983-1988) DVDRip от Youtracker|A

0 | 2

4.37 ГБ

В этой теме нет новых непрочитанных сообщений. VA - Big Beats Barbecue Vol 2 Deep House and Electronic Beats (2015) MP3

48 | 10

313.73 МБ




Вы не можете начинать темы
Вы не можете отвечать на сообщения
Вы не можете редактировать свои сообщения
Вы не можете удалять свои сообщения
Вы не можете добавлять вложения

Перейти:  
Для Мосгорсуда, Роскомнадзора и рекламодателей: mosgorsud-torrent[собачка]yandex.ru
 Вход
ppkBB3cker v.2 © 2008-2014 @ PPK
[ Time : 2.210s | 15 Queries | GZIP : Off ]

Торрент трекер RUTOR.IN, Не можете зайти на rutor.org? Какой новый адрес рутор? Какое зеркало рутор? Не работает rutor.org и зеркала? Тогда наш торрент специально для вас. Rutor.in неофициальное зеркало rutor. В случае если у Вас заблокирован rutor или вдруг Вы не можете на него зайти, то Вы без труда сможете скачать бесплатно и без рекламы последние новинки кино, игр, сериалов и прочего у нас, на Rutor.in. Не нужно использовать прокси, чтобы зайти на рутор, достаточно воспользоваться нашим ресурсом. Все новые фильмы, игры, сериалы, книги и музыка за 2013 и 2014 годы через торрент бесплатно. Скачивайте фильмы в хорошем качестве, игры для пк, xbox, playstation без регистрации. У нас вы найдете новые Зарубежные сериалы и Русские сериалы 2013, 2014, 2015 годов. Оставайтесь с нами, качайте любимые фильмы, игры, сериалы, книги и музыку.