img image001 image001 image001 image001 image001 image001 image001 image001 image001 image001 image001 image001 image001 image001 image001

Planets Sun Sun Sun
Статистика раздачи
Автор: PriZraK | Размер: 1.25 ГБ | Добавлен: 16 фев 2014
Раздают: 63    Качают: 5
Скачать торрент
Скачать торрент
Описание торрента

СообщениеДобавлено: 16 фев 2014 



Информация о фильме
Название: Сад слов
Оригинальное название: Kotonoha no niwa
Год выхода: 2013
Жанр: романтика, драма
Режиссер: Синкай Макото
В ролях: Ирино Мию, Кана Ханадзава, Фуми Хирано, Гоу Маэда, Юка Тэрасаки, Сугуру Иноэ

О фильме:
Акизуки Такао с детства мечтал стать дизайнером обуви. По утрам, в дождливые дни он пропускает уроки и в саду японского стиля рисует эскизы обуви в своей тетради. И вот одним таким дождливым утром он встречает в саду загадочную девушку. Так, без лишних формальностей эти двое продолжают встречаться в дождливые дни вновь и вновь и их отношения крепчают со временем. Однако, сезон дождей скоро подойдет к концу...
Официальный сайт

Страна: Япония
Студия: CoMix Wave Inc.
Продолжительность: 00:45:58
Перевод:
RU - Любительский многоголосый закадровый OpenTeam
UA - Дубляж от UA MAX
RU - Любительский двухголосый закадровый -[Anidub)
RU - Любительский двухголосый закадровый - (Anilibria)
RU - Любительский двухголосый закадровый - [AniFilm]
RU - Любительский двухголосый закадровый - (LE-Production)

Файл
Формат: MKV
Кодек: H.264
Качество: BDRip [8bit]
Видео: 1280px X 720px, 23.976 fps, ~2600Kbps
Звук:
Rus - AC3, 48000Hz, 192 Kbps, 2ch - comina, Collapse, MIKS, micola777, Мирра, becky, BadWolf, Erin, Eva, Соловей
Ukr - AC3, 48000Hz, 192 Kbps, 2ch - Dub [UA MAX]
Rus - AC3, 48000Hz, 192 Kbps, 2ch - Cuba77 & Trina_D
Rus - AC3, 48000Hz, 192 Kbps, 2ch - Zendos & Eladiel
Rus - AC3, 48000Hz, 192 Kbps, 2ch - Nutbar, Mosa
Rus - AC3, 48000Hz, 192 Kbps, 2ch - loster01 & Emeri

Про озвучення:
Куратор: Ray (ua max)
Ролі дублювали: Ray, Trina D.
Rise, Вiталiй Iзмалков, Snovyda, Emeri, Kinatan, Sonata, Kiara Laine, Mezida, Kapets.

Таймiнг & робота зi звуком & мiнус: Ray
Переклад: Gedet
Редагування: Ray
Постер: Ray
Окрема подяка: Ansverito & Wetka
-
Переклад та виконання пiснi: Rise
Робота зi звуком: Ray

Общее
Уникальный идентификатор : 176945697160935876764763796210789351906 (0x851E806D65BD77F09012398301D381E2)
Полное имя : G:UA_MAXKotonoha no Niwa [720p].mkv
Формат : Matroska
Версия формата : Version 2
Размер файла : 1,25 Гбайт
Продолжительность : 46 м.
Общий поток : 3872 Кбит/сек
Дата кодирования : UTC 2013-11-24 02:03:05
Программа кодирования : mkvmerge v4.2.0 ('No Talking') сборка от Jul 28 2010 18:38:23
Библиотека кодирования : libebml v1.0.0 + libmatroska v1.0.0

Видео
Идентификатор : 1
Формат : AVC
Формат/Информация : Advanced Video Codec
Профиль формата : High@L4.0
Параметр CABAC формата : Да
Параметр ReFrames формата : 6 кадров
Идентификатор кодека : V_MPEG4/ISO/AVC
Продолжительность : 46 м.
Битрейт : 2643 Кбит/сек
Ширина : 1280 пикселей
Высота : 720 пикселей
Соотношение сторон : 16:9
Режим частоты кадров : Постоянный
Частота кадров : 23,976 кадра/сек
Цветовое пространство : YUV
Субдискретизация насыщенности : 4:2:0
Битовая глубина : 8 бит
Тип развёртки : Прогрессивная
Бит/(Пиксели*Кадры) : 0.120
Размер потока : 873 Мбайт (68%)
Заголовок : [encoded by SEED]
Язык : Japanese
Default : Да
Forced : Нет

Аудио #1
Идентификатор : 2
Формат : AC-3
Формат/Информация : Audio Coding 3
Расширение режима : CM (complete main)
Параметр Endianness формата : Big
Идентификатор кодека : A_AC3
Продолжительность : 46 м.
Вид битрейта : Постоянный
Битрейт : 192 Кбит/сек
Каналы : 2 канала
Расположение каналов : Front: L R
Частота : 48,0 КГц
Битовая глубина : 16 бит
Метод сжатия : С потерями
Размер потока : 63,4 Мбайт (5%)
Заголовок : OpenDub
Язык : Russian
Default : Да
Forced : Нет

Аудио #2
Идентификатор : 3
Формат : AC-3
Формат/Информация : Audio Coding 3
Расширение режима : CM (complete main)
Параметр Endianness формата : Big
Идентификатор кодека : A_AC3
Продолжительность : 46 м.
Вид битрейта : Постоянный
Битрейт : 192 Кбит/сек
Каналы : 2 канала
Расположение каналов : Front: L R
Частота : 48,0 КГц
Битовая глубина : 16 бит
Метод сжатия : С потерями
Задержка видео : 12 с.
Размер потока : 63,4 Мбайт (5%)
Заголовок : UA MAX
Язык : Ukrainian
Default : Нет
Forced : Нет

Аудио #3
Идентификатор : 4
Формат : AC-3
Формат/Информация : Audio Coding 3
Расширение режима : CM (complete main)
Параметр Endianness формата : Big
Идентификатор кодека : A_AC3
Продолжительность : 46 м.
Вид битрейта : Постоянный
Битрейт : 192 Кбит/сек
Каналы : 2 канала
Расположение каналов : Front: L R
Частота : 48,0 КГц
Битовая глубина : 16 бит
Метод сжатия : С потерями
Задержка видео : 12 с.
Размер потока : 63,4 Мбайт (5%)
Заголовок : AniDub
Язык : Russian
Default : Нет
Forced : Нет

Аудио #4
Идентификатор : 5
Формат : AC-3
Формат/Информация : Audio Coding 3
Расширение режима : CM (complete main)
Параметр Endianness формата : Big
Идентификатор кодека : A_AC3
Продолжительность : 46 м.
Вид битрейта : Постоянный
Битрейт : 192 Кбит/сек
Каналы : 2 канала
Расположение каналов : Front: L R
Частота : 48,0 КГц
Битовая глубина : 16 бит
Метод сжатия : С потерями
Задержка видео : 12 с.
Размер потока : 63,4 Мбайт (5%)
Заголовок : Anilibria
Язык : Russian
Default : Нет
Forced : Нет

Аудио #5
Идентификатор : 6
Формат : AC-3
Формат/Информация : Audio Coding 3
Расширение режима : CM (complete main)
Параметр Endianness формата : Big
Идентификатор кодека : A_AC3
Продолжительность : 46 м.
Вид битрейта : Постоянный
Битрейт : 192 Кбит/сек
Каналы : 2 канала
Расположение каналов : Front: L R
Частота : 48,0 КГц
Битовая глубина : 16 бит
Метод сжатия : С потерями
Задержка видео : 12 с.
Размер потока : 63,4 Мбайт (5%)
Заголовок : AniFilm
Язык : Russian
Default : Нет
Forced : Нет

Аудио #6
Идентификатор : 7
Формат : AC-3
Формат/Информация : Audio Coding 3
Расширение режима : CM (complete main)
Параметр Endianness формата : Big
Идентификатор кодека : A_AC3
Продолжительность : 46 м.
Вид битрейта : Постоянный
Битрейт : 192 Кбит/сек
Каналы : 2 канала
Расположение каналов : Front: L R
Частота : 48,0 КГц
Битовая глубина : 16 бит
Метод сжатия : С потерями
Задержка видео : 12 с.
Размер потока : 63,4 Мбайт (5%)
Заголовок : LE-Production
Язык : Russian
Default : Нет
Forced : Нет




Релиз от:

Примечания - Данный релиз предназначен для раздач, которые могут быть воспроизведены на бытовых (внешних / "железных") плеерах и телевизорах, т.е. это HD-HWP.



   Похожие торренты   Торрент   Размер 
В этой теме нет новых непрочитанных сообщений. Сад изящных слов / Сад слов / The Garden of Words / Kotonoha no Niwa (2013) BDRip 720p | L1

93 | 11

1.07 ГБ

В этой теме нет новых непрочитанных сообщений. Сад изящных слов / Сад слов / Kotonoha no Niwa / The Garden of Words (2013) BDRip-720p | D

155 | 44

2.01 ГБ

В этой теме нет новых непрочитанных сообщений. Сад изящных слов / Сад слов / The Garden of Words / Kotonoha no Niwa (2013) BDRip 1080p от NNNB | L2

96 | 4

3.3 ГБ

В этой теме нет новых непрочитанных сообщений. Сад изящных слов / The Garden of Words / Kotonoha no Niwa (2013) BDRip 720p | L1

46 | 8

1.07 ГБ

В этой теме нет новых непрочитанных сообщений. Сад изящных слов / Сад слов / The Garden of Words / Kotonoha no Niwa (2013) BDRemux | D

66 | 3

11.47 ГБ

В этой теме нет новых непрочитанных сообщений. Сад изящных слов / Сад слов / The Garden of Words / Kotonoha no Niwa (2013) BDRemux | L2

46 | 11

15.48 ГБ

В этой теме нет новых непрочитанных сообщений. Сад слов / Kotonoha no niwa (2013) BDRip 1080p от UA MAX | D, L2

42 | 7

5.04 ГБ




Вы не можете начинать темы
Вы не можете отвечать на сообщения
Вы не можете редактировать свои сообщения
Вы не можете удалять свои сообщения
Вы не можете добавлять вложения

Перейти:  
Для Мосгорсуда, Роскомнадзора и рекламодателей: mosgorsud-torrent[собачка]yandex.ru
 Вход
ppkBB3cker v.2 © 2008-2014 @ PPK
[ Time : 0.043s | 14 Queries | GZIP : Off ]

Торрент трекер RUTOR.IN, Не можете зайти на rutor.org? Какой новый адрес рутор? Какое зеркало рутор? Не работает rutor.org и зеркала? Тогда наш торрент специально для вас. Rutor.in неофициальное зеркало rutor. В случае если у Вас заблокирован rutor или вдруг Вы не можете на него зайти, то Вы без труда сможете скачать бесплатно и без рекламы последние новинки кино, игр, сериалов и прочего у нас, на Rutor.in. Не нужно использовать прокси, чтобы зайти на рутор, достаточно воспользоваться нашим ресурсом. Все новые фильмы, игры, сериалы, книги и музыка за 2013 и 2014 годы через торрент бесплатно. Скачивайте фильмы в хорошем качестве, игры для пк, xbox, playstation без регистрации. У нас вы найдете новые Зарубежные сериалы и Русские сериалы 2013, 2014, 2015 годов. Оставайтесь с нами, качайте любимые фильмы, игры, сериалы, книги и музыку.