img image001 image001 image001 image001 image001 image001 image001 image001 image001 image001 image001 image001 image001 image001 image001

Planets Sun Sun Sun
Статистика раздачи
Автор: PriZraK | Размер: 1.65 ГБ | Добавлен: 15 фев 2014
Раздают: 138    Качают: 30
Скачать торрент
Скачать торрент
Описание торрента

СообщениеДобавлено: 15 фев 2014 

Информация о фильме
Название: Евангелион 3.33: Ты (не) Исправишь
Оригинальное название: Evangelion: 3.33 You Can (Not) Redo
Год выхода: 2012
Жанр: фантастика, меха, драма
Режиссер: Анно Хидэаки
В ролях:
Мегуми Огата
Мэгуми Хаясибара
Юко Миямура
Маая Сакамото
Котоно Мицуйси
Акира Исида
Юрико Ямагути
Фумихико Татики
Мотому Киёкава
Такэхито Коясу
...

О фильме:
После событий второго фильма, Икари Синдзи пробуждается в новом мире. Он не понимает, что происходит, но постепенно ему открывается пугающая истина. В результате Синдзи придется снова сражаться с ангелами вместе с неожиданными союзниками, преодолевая сопротивление бывших друзей. И снова судьба бросит его на передовую войны и заставит принимать решение за всё человечество. Что же он выберет в этот раз?
Официальный сайт

Страна: Япония
Студия: Khara
Продолжительность: 01:35:31
Перевод:
RU - Любительский многоголосый закадровый
UA - Украинский дубляж
RU - Любительский одноголосый закадровый
RU - Любительский одноголосый закадровый
Файл
Кодек: x264 (8-bit)
Качество: BDRip 720p
Видео: 1280x720, ~1600 kbps, 24 fps
Звук:
RUS - AC3, 192 kbps, 48KHz, 2ch (Erinant, Skyfy, Makers, Lee-Ann, Kashi, Usagi)
UKR - AC3, 192 kbps, 48KHz, 2ch (UA MAX)
RUS - AC3, 192 kbps, 48KHz, 2ch (persona99)
RUS - AC3, 192 kbps, 48KHz, 2ch (sitsumei)
Про озвучення:
Куратор: Ray (ua max)
Ролі дублювали: Ray, Rise, Snovyda, Nika Lenina, Emeri, Lali, Ната, Анубiс, Матвій, Nesquik, Shina, Sonata
Епізодичні ролі: Ray, Rise, Snovyda, Rusalka, Emeri, Віталій Ізмалков, Eladiel, Sonata

Таймiнг & робота зi звуком & мiнус: Ray
Переклад: Gedet
Редагування: Ray
Постер: Samotar & Ray
Окрема подяка: Evafan & Chimera
Cпонсорування: Ray, Ростислав Королык, Василь Дикан

Ріп: UTW-THORA

Общее
Уникальный идентификатор : 190843082740764001164962412862161356813 (0x8F930A7018C54F65A3433854DF15080D)
Полное имя : G:UA_MAXEvangelion 3.33 You Can (Not) Redo [720p].mkv
Формат : Matroska
Версия формата : Version 2
Размер файла : 1,65 Гбайт
Продолжительность : 1 ч. 35 м.
Общий поток : 2469 Кбит/сек
Дата кодирования : UTC 2013-11-24 00:29:59
Программа кодирования : mkvmerge v4.2.0 ('No Talking') сборка от Jul 28 2010 18:38:23
Библиотека кодирования : libebml v1.0.0 + libmatroska v1.0.0

Видео
Идентификатор : 1
Формат : AVC
Формат/Информация : Advanced Video Codec
Профиль формата : High@L4.0
Параметр CABAC формата : Да
Параметр ReFrames формата : 6 кадров
Идентификатор кодека : V_MPEG4/ISO/AVC
Продолжительность : 1 ч. 35 м.
Битрейт : 1652 Кбит/сек
Ширина : 1280 пикселей
Высота : 720 пикселей
Соотношение сторон : 16:9
Режим частоты кадров : Постоянный
Частота кадров : 24,000 кадра/сек
Цветовое пространство : YUV
Субдискретизация насыщенности : 4:2:0
Битовая глубина : 8 бит
Тип развёртки : Прогрессивная
Бит/(Пиксели*Кадры) : 0.075
Размер потока : 1,10 Гбайт (67%)
Заголовок : [encoded by SEED]
Язык : Japanese
Default : Да
Forced : Нет

Аудио #1
Идентификатор : 2
Формат : AC-3
Формат/Информация : Audio Coding 3
Расширение режима : CM (complete main)
Параметр Endianness формата : Big
Идентификатор кодека : A_AC3
Продолжительность : 1 ч. 35 м.
Вид битрейта : Постоянный
Битрейт : 192 Кбит/сек
Каналы : 2 канала
Расположение каналов : Front: L R
Частота : 48,0 КГц
Битовая глубина : 16 бит
Метод сжатия : С потерями
Размер потока : 131 Мбайт (8%)
Заголовок : MVO
Язык : Russian
Default : Да
Forced : Нет

Аудио #2
Идентификатор : 3
Формат : AC-3
Формат/Информация : Audio Coding 3
Расширение режима : CM (complete main)
Параметр Endianness формата : Big
Идентификатор кодека : A_AC3
Продолжительность : 1 ч. 35 м.
Вид битрейта : Постоянный
Битрейт : 192 Кбит/сек
Каналы : 2 канала
Расположение каналов : Front: L R
Частота : 48,0 КГц
Битовая глубина : 16 бит
Метод сжатия : С потерями
Размер потока : 131 Мбайт (8%)
Заголовок : Дубляж
Язык : Ukrainian
Default : Нет
Forced : Нет

Аудио #3
Идентификатор : 4
Формат : AC-3
Формат/Информация : Audio Coding 3
Расширение режима : CM (complete main)
Параметр Endianness формата : Big
Идентификатор кодека : A_AC3
Продолжительность : 1 ч. 35 м.
Вид битрейта : Постоянный
Битрейт : 192 Кбит/сек
Каналы : 2 канала
Расположение каналов : Front: L R
Частота : 48,0 КГц
Битовая глубина : 16 бит
Метод сжатия : С потерями
Размер потока : 131 Мбайт (8%)
Заголовок : persona99
Язык : Russian
Default : Нет
Forced : Нет

Аудио #4
Идентификатор : 5
Формат : AC-3
Формат/Информация : Audio Coding 3
Расширение режима : CM (complete main)
Параметр Endianness формата : Big
Идентификатор кодека : A_AC3
Продолжительность : 1 ч. 35 м.
Вид битрейта : Постоянный
Битрейт : 192 Кбит/сек
Каналы : 2 канала
Расположение каналов : Front: L R
Частота : 48,0 КГц
Битовая глубина : 16 бит
Метод сжатия : С потерями
Задержка видео : 11 с.
Размер потока : 131 Мбайт (8%)
Заголовок : sitsumei
Язык : Russian
Default : Нет
Forced : Нет




Релиз от:
Релиз от:
Примечания - Данный релиз предназначен для раздач, которые могут быть воспроизведены на бытовых (внешних / "железных") плеерах и телевизорах, т.е. это HD-HWP.



   Похожие торренты   Торрент   Размер 
В этой теме нет новых непрочитанных сообщений. Евангелион 3.33: Ты (не) Исправишь / Evangelion: 3.33 You Can (Not) Redo (2012) BDRip 1080p от UA MAX | L

87 | 12

7.97 ГБ

В этой теме нет новых непрочитанных сообщений. Евангелион по-новому [Фильм второй] / Евангелион 2.22 / Evangerion shin gekijôban: Ha / Evangelion: 2.22 You Can [Not] Advance (2009) BDRip от HELLYWOOD

78 | 23

2.18 ГБ

В этой теме нет новых непрочитанных сообщений. Евангелион: 1.11 Ты [Не] Одинок / Evangelion: 1.11 You Are (Not) Alone (2009) BDRip 720p

1 | 29

1.98 ГБ

В этой теме нет новых непрочитанных сообщений. Евангелион: 1.11 Ты [Не] Одинок / Evangelion: 1.11 You Are (Not) Alone (2009) BDRip 720p

14 | 2

1.98 ГБ

В этой теме нет новых непрочитанных сообщений. Евангелион. Фильм / Evangelion. Movie [01-03 из 03] (2007-2012) BDRip от UA MAX | HWP

52 | 18

4.5 ГБ

В этой теме нет новых непрочитанных сообщений. Евангелион 1.11: Ты (не) один / Evangelion Shin Gekijouban: Jo (2007) BDRip 720p от Leonardo and Scarabey

215 | 54

2.42 ГБ

В этой теме нет новых непрочитанных сообщений. Евангелион нового поколения / Neon Genesis Evangelion [01-26 из 26] (1996) BDRip 720p от SDIncorporation | Original Color

36 | 26

29.07 ГБ




Вы не можете начинать темы
Вы не можете отвечать на сообщения
Вы не можете редактировать свои сообщения
Вы не можете удалять свои сообщения
Вы не можете добавлять вложения

Перейти:  
Для Мосгорсуда, Роскомнадзора и рекламодателей: mosgorsud-torrent[собачка]yandex.ru
 Вход
ppkBB3cker v.2 © 2008-2014 @ PPK
[ Time : 0.053s | 15 Queries | GZIP : Off ]

Торрент трекер RUTOR.IN, Не можете зайти на rutor.org? Какой новый адрес рутор? Какое зеркало рутор? Не работает rutor.org и зеркала? Тогда наш торрент специально для вас. Rutor.in неофициальное зеркало rutor. В случае если у Вас заблокирован rutor или вдруг Вы не можете на него зайти, то Вы без труда сможете скачать бесплатно и без рекламы последние новинки кино, игр, сериалов и прочего у нас, на Rutor.in. Не нужно использовать прокси, чтобы зайти на рутор, достаточно воспользоваться нашим ресурсом. Все новые фильмы, игры, сериалы, книги и музыка за 2013 и 2014 годы через торрент бесплатно. Скачивайте фильмы в хорошем качестве, игры для пк, xbox, playstation без регистрации. У нас вы найдете новые Зарубежные сериалы и Русские сериалы 2013, 2014, 2015 годов. Оставайтесь с нами, качайте любимые фильмы, игры, сериалы, книги и музыку.