img image001 image001 image001 image001 image001 image001 image001 image001 image001 image001 image001 image001 image001 image001 image001

Planets Sun Sun Sun
Статистика раздачи
Автор: PriZraK | Размер: 4.32 ГБ | Добавлен: 15 фев 2014
Раздают: 136    Качают: 10
Скачать торрент
Скачать торрент
Описание торрента

СообщениеДобавлено: 15 фев 2014 

Информация о фильме
Название: Спецотряд Burn Up
Оригинальное название: Burn Up! Scramble
Год выхода: 2004
Жанр: приключения, комедия, фантастика, этти
Режиссер: Хаяси Хироки

О фильме:
В недалеком будущем японскую столицу захлестывают волны преступности. Обычная полиция не справляется с лавиной криминала, и в обстановке секретности формируется спецотряд "Воины". Это Рие - офицер, владеющая всеми видами единоборств; остроглазый снайпер Майя и юная Лилика, обладающая сверхъестественными способностями. Комедийный секси-боевик Burn Up! возвращается!


Страна: Япония
Студия: AIC
Продолжительность: 12 эп., 24 мин.
Перевод: Профессиональный (многоголосый, закадровый)

Файл
Кодек: x264
Качество: DVDRip
Видео: 720x544, ~1904 kbps, 23,976 fps
Звук: AAC ~224 kbps, 2 CH, STEREO 48Khz

Общее
Полное имя : D:Anime DVDBurn Up Scramble [2004]Burn Up Scramble - 01 (DVD x264 720x544 AVC AAC).mp4
Формат : MPEG-4
Профиль формата : Base Media
Идентификатор кодека : isom
Размер файла : 369 Мбайт
Продолжительность : 24 м.
Режим общего битрейта : Переменный
Общий поток : 2134 Кбит/сек
Дата кодирования : UTC 2013-11-26 04:40:45
Дата пометки : UTC 2013-11-26 04:40:45

Видео
Идентификатор : 1
Формат : AVC
Формат/Информация : Advanced Video Codec
Профиль формата : Main@L5.1
Параметр CABAC формата : Да
Параметр ReFrames формата : 4 кадра
Идентификатор кодека : avc1
Идентификатор кодека/Информация : Advanced Video Coding
Продолжительность : 24 м.
Битрейт : 1904 Кбит/сек
Максимальный битрейт : 9753 Кбит/сек
Ширина : 720 пикселей
Высота : 544 пикселя
Соотношение сторон : 4:3
Соотношение сторон в оригинале : 4:3
Режим частоты кадров : Постоянный
Частота кадров : 23,976 кадра/сек
Цветовое пространство : YUV
Субдискретизация насыщенности : 4:2:0
Битовая глубина : 8 бит
Тип развёртки : Прогрессивная
Бит/(Пиксели*Кадры) : 0.203
Размер потока : 329 Мбайт (89%)
Библиотека кодирования : x264 core 56 svn-667M
Настройки программы : cabac=1 / ref=3 / deblock=1:0:0 / analyse=0x1:0x131 / me=umh / subme=6 / brdo=1 / mixed_ref=1 / me_range=16 / chroma_me=1 / trellis=1 / 8x8dct=0 / cqm=0 / deadzone=21,11 / chroma_qp_offset=0 / threads=2 / nr=0 / decimate=1 / mbaff=0 / bframes=3 / b_pyramid=0 / b_adapt=1 / b_bias=0 / direct=3 / wpredb=1 / bime=1 / keyint=250 / keyint_min=25 / scenecut=40(pre) / rc=2pass / bitrate=1904 / ratetol=1.0 / rceq='blurCplx^(1-qComp)' / qcomp=0.60 / qpmin=10 / qpmax=51 / qpstep=4 / cplxblur=20.0 / qblur=0.5 / ip_ratio=1.40 / pb_ratio=1.30
Дата кодирования : UTC 2013-11-26 04:40:45
Дата пометки : UTC 2013-11-26 04:41:14

Аудио
Идентификатор : 2
Формат : AAC
Формат/Информация : Advanced Audio Codec
Профиль формата : LC
Идентификатор кодека : 40
Продолжительность : 24 м.
Вид битрейта : Переменный
Битрейт : 226 Кбит/сек
Максимальный битрейт : 303 Кбит/сек
Каналы : 2 канала
Расположение каналов : Front: L R
Частота : 48,0 КГц
Метод сжатия : С потерями
Размер потока : 39,1 Мбайт (11%)
Дата кодирования : UTC 2013-11-26 04:41:13
Дата пометки : UTC 2013-11-26 04:41:14



Релиз от:



   Похожие торренты   Торрент   Размер 
В этой теме нет новых непрочитанных сообщений. Гори, Голливуд, Гори / Burn, Hollywood, Burn (1997) DVDRip от GeneralFilm

19 | 1

863.59 МБ

В этой теме нет новых непрочитанных сообщений. Burn Zombie Burn! (2010) PC | RePack

13 | 2

135.16 МБ

В этой теме нет новых непрочитанных сообщений. Burn Zombie Burn (2010) PC

1 | 2

255.15 МБ

В этой теме нет новых непрочитанных сообщений. Crash 'N' Burn (2004) PC

147 | 15

1.06 ГБ

В этой теме нет новых непрочитанных сообщений. Time to Burn - Дискография (2004-2007) MP3

8 | 2

204.78 МБ

В этой теме нет новых непрочитанных сообщений. Deep Purple - Burn (30th Anniversary Edition) (1974 / 2004) FLAC

241 | 33

541.73 МБ

В этой теме нет новых непрочитанных сообщений. Ярость / Slow Burn (2005) DVDRip | P

9 | 2

702.16 МБ




Вы не можете начинать темы
Вы не можете отвечать на сообщения
Вы не можете редактировать свои сообщения
Вы не можете удалять свои сообщения
Вы не можете добавлять вложения

Перейти:  
Для Мосгорсуда, Роскомнадзора и рекламодателей: mosgorsud-torrent[собачка]yandex.ru
 Вход
ppkBB3cker v.2 © 2008-2014 @ PPK
[ Time : 8.066s | 16 Queries | GZIP : Off ]

Торрент трекер RUTOR.IN, Не можете зайти на rutor.org? Какой новый адрес рутор? Какое зеркало рутор? Не работает rutor.org и зеркала? Тогда наш торрент специально для вас. Rutor.in неофициальное зеркало rutor. В случае если у Вас заблокирован rutor или вдруг Вы не можете на него зайти, то Вы без труда сможете скачать бесплатно и без рекламы последние новинки кино, игр, сериалов и прочего у нас, на Rutor.in. Не нужно использовать прокси, чтобы зайти на рутор, достаточно воспользоваться нашим ресурсом. Все новые фильмы, игры, сериалы, книги и музыка за 2013 и 2014 годы через торрент бесплатно. Скачивайте фильмы в хорошем качестве, игры для пк, xbox, playstation без регистрации. У нас вы найдете новые Зарубежные сериалы и Русские сериалы 2013, 2014, 2015 годов. Оставайтесь с нами, качайте любимые фильмы, игры, сериалы, книги и музыку.
cron