img image001 image001 image001 image001 image001 image001 image001 image001 image001 image001 image001 image001 image001 image001 image001

Planets Sun Sun Sun
Статистика раздачи
Автор: PriZraK | Размер: 871.46 МБ | Добавлен: 15 фев 2014
Раздают: 33    Качают: 3
Скачать торрент
Скачать торрент
Описание торрента

СообщениеДобавлено: 15 фев 2014 

Люпен III: Принцесса морского бриза - Город скрытый в небесах / Lupin III: Princess of the Breeze - Hidden City in the Sky



Страна: Япония
Год выпуска: 2013 г.
Жанр: приключения, комедия
Тип: TV Special
Продолжительность: ТВ-спэшл, 90 мин.
Режиссер: Канасаки Такаоми
Студия: TMS

Описание:
Шахалта - плавающий в небе, крошечный европейский городок-государство, не имеющий контакта с внешним миром уже много лет. Правительство переходит от монархии к республике, и в честь этого устраивает национальную выставку сокровищ. Люпин решает проникнуть туда, чтобы украсть секретные царские сокровища.

Доп. информация: Релиз GSGroup


Качество: HDTVRip
Тип релиза: Без хардсаба
Формат видео: AVI
Совместимость с бытовыми плеерами: Да
Видео: XviD, 720x400, 23.976 fps, 945 Kbps, 8 bits
Аудио 1: AC-3, 48.0 KHz, 192 Kbps, 2 channels Язык Русский (в составе контейнера) ; Озвучка: Persona99
Аудио 2: AC-3, 48.0 KHz, 192 Kbps, 2 channels Язык Японский ; Озвучка 2: оригинал
Субтитры 1: ass, srt, внешние Язык субтитров Русский ; Перевод: Semyon44, Редактор: Mirron
Субтитры 2: внешние Язык субтитров английский ; Перевод 2: TSAMA
Код:
General
Complete name                            : [GSG] Lupin III - Princess of the Breeze (NTV 720x400 XviD Avi)Lupin III - Princess of the Breeze [Persona99].rus.jpn.avi
Format                                   : AVI
Format/Info                              : Audio Video Interleave
File size                                : 871 MiB
Duration                                 : 1h 30mn
Overall bit rate                         : 1 343 Kbps
Writing application                      : VirtualDubMod 1.5.10.2 (build 2540/release)
Writing library                          : VirtualDubMod build 2540/release

Video
ID                                       : 0
Format                                   : MPEG-4 Visual
Format profile                           : Advanced Simple@L5
Format settings, BVOP                    : 2
Format settings, QPel                    : No
Format settings, GMC                     : No warppoints
Format settings, Matrix                  : Default (H.263)
Codec ID                                 : XVID
Codec ID/Hint                            : XviD
Duration                                 : 1h 30mn
Bit rate                                 : 945 Kbps
Width                                    : 720 pixels
Height                                   : 400 pixels
Display aspect ratio                     : 16:9
Frame rate                               : 23.976 fps
Color space                              : YUV
Chroma subsampling                       : 4:2:0
Bit depth                                : 8 bits
Scan type                                : Progressive
Compression mode                         : Lossy
Bits/(Pixel*Frame)                       : 0.137
Stream size                              : 613 MiB (70%)
Writing library                          : XviD 1.2.1 (UTC 2008-12-04)

Audio #1
ID                                       : 1
Format                                   : AC-3
Format/Info                              : Audio Coding 3
Mode extension                           : CM (complete main)
Format settings, Endianness              : Big
Codec ID                                 : 2000
Duration                                 : 1h 30mn
Bit rate mode                            : Constant
Bit rate                                 : 192 Kbps
Channel(s)                               : 2 channels
Channel positions                        : Front: L R
Sampling rate                            : 48.0 KHz
Bit depth                                : 16 bits
Compression mode                         : Lossy
Stream size                              : 124 MiB (14%)
Alignment                                : Split accross interleaves
Interleave, duration                     : 42 ms (1.00 video frame)
Interleave, preload duration             : 500 ms

Audio #2
ID                                       : 2
Format                                   : AC-3
Format/Info                              : Audio Coding 3
Mode extension                           : CM (complete main)
Format settings, Endianness              : Big
Codec ID                                 : 2000
Duration                                 : 1h 30mn
Bit rate mode                            : Constant
Bit rate                                 : 192 Kbps
Channel(s)                               : 2 channels
Channel positions                        : Front: L R
Sampling rate                            : 48.0 KHz
Bit depth                                : 16 bits
Compression mode                         : Lossy
Stream size                              : 124 MiB (14%)
Alignment                                : Split accross interleaves
Interleave, duration                     : 42 ms (1.00 video frame)
Interleave, preload duration             : 500 ms




   Похожие торренты   Торрент   Размер 
В этой теме нет новых непрочитанных сообщений. Люпен Третий: Приключения в Италии / Lupin Sansei (2015) / Lupin the 3rd Part 4 [TV] [01-08] (2015) HDTVRip 720 | Persona99

15 | 5

2.92 ГБ

В этой теме нет новых непрочитанных сообщений. Люпен Третий: Приключения в Италии / Lupin the 3rd Part 4 [TV] [01-13] (2015) HDTVRip 720 | Persona99

8 | 5

4.63 ГБ

В этой теме нет новых непрочитанных сообщений. Люпен Третий: Приключения в Италии / Lupin the 3rd Part 4 [TV] [01-11] (2015) HDTVRip 720 | Persona99

2 | 0

3.93 ГБ

В этой теме нет новых непрочитанных сообщений. Люпен III против Детектива Конана (фильм) / Lupin III vs. Detective Conan The Movie (2013) BDRip | Persona99

16 | 7

1.41 ГБ

В этой теме нет новых непрочитанных сообщений. Люпен III против Детектива Конана (фильм) / Lupin III vs. Detective Conan The Movie (2013) BDRip 720 | Persona99

14 | 5

2.92 ГБ

В этой теме нет новых непрочитанных сообщений. Люпен III: Украденный Люпен (спецвыпуск 16) / Lupin III: Stolen Lupin (Уэда Хидэхито) [Special] [1 из 1] [RAW] [RUS(int)+JAP] [2004, приключения, комедия, фантастика, BDRip] [1080p]

0 | 2

4.96 ГБ

В этой теме нет новых непрочитанных сообщений. Люпен III: Из России с любовью / Lupin III: From Russia With Love (1992) BDRip 720 | Persona99

10 | 2

2.9 ГБ




Вы не можете начинать темы
Вы не можете отвечать на сообщения
Вы не можете редактировать свои сообщения
Вы не можете удалять свои сообщения
Вы не можете добавлять вложения

Перейти:  
Для Мосгорсуда, Роскомнадзора и рекламодателей: mosgorsud-torrent[собачка]yandex.ru
 Вход
ppkBB3cker v.2 © 2008-2014 @ PPK
[ Time : 0.051s | 15 Queries | GZIP : Off ]

cron