img image001 image001 image001 image001 image001 image001 image001 image001 image001 image001 image001 image001 image001 image001 image001

Planets Sun Sun Sun
Статистика раздачи
Автор: PriZraK | Размер: 3.26 ГБ | Добавлен: 15 фев 2014
Раздают: 25    Качают: 5
Скачать торрент
Скачать торрент
Описание торрента

СообщениеДобавлено: 15 фев 2014 

Принцесса Мононоке / Mononoke Hime


Название: Принцесса МононокеОригинальное название: Mononoke Hime
Год выхода: 1997
Жанр: Приключения, фэнтези, драма, полнометражный



Режиссер: Хаяо Миядзаки



О фильме:
Средневековая Япония, середина XV века. В стране пылает междоусобная война. Молодой воин по имени Аситака из племени эмиси отправляется в лес великого божества Сисигами, чтобы очиститься от проклятия, перешедшее на него от обезумевшего Бога Кабанов. Произошло это, когда Аситака для спасения своей деревни вынужден был убить его. Необходимо торопиться, проклятье медленно, но верно убивает юного воина. На границе леса он находит поселение сталеваров, возглавляемое харизматичной Эбоси-годзэн. Вырубание леса для сталеваров – необходимый элемент производственного цикла. Им необходимо топливо. Благодаря производимому ими металлу и изготовляемому из него огнестрельному оружию они могут сохранить независимость от окружающих феодалов. Поселение Эбоси - прибежище прокаженных и беглых преступников. Людям противостоят разумные животные, населяющие леса, и их божества во главе с Богиней-волчицей и её воспитанницей - Сан, Принцессой-мононокэ ("мононокэ" по-японски - "разгневанный дух"). И те, и другие защищают свои интересы. И ни тем, ни другим просто некуда отступать. Третья сила в конфликте - шпионы императора, желающие использовать ситуацию, чтобы заполучить голову Сисигами, которая, по древней легенде, может дать бессмертие ее обладателю. Героизм и предательство, любовь и ненависть, извечная вражда и вновь зарождающееся доверие - в этом фильме есть всё.







Страна: Япония, Studio Ghibli
Продолжительность: 02:13:23
Перевод: Дублированный, профессиональный многоголосый



Качество: BDRip
Видео: XviD, 1879 Кбит/с, 720x384, 23.976 кадр/с
Звук:
Аудио #1: Русский (AC3, 6 ch, 384 Кбит/с) - дублированный
Аудио #2: Русский (AC3, 6 ch, 384 Кбит/с) - профессиональный многоголосый
Аудио #3: Японский (AC3, 6 ch, 384 Кбит/с) - оригинал (отдельным файлом)
Аудио #4: Английский (AC3, 6 ch, 448 Кбит/с) - дублированный (отдельным файлом)
Субтитры: Русские, английские


Общее
Полное имя : E:Princess.Mononoke.1997.BDRipPrincess.Mononoke.1997.BDRip.avi
Формат : AVI
Формат/Информация : Audio Video Interleave
Профиль формата : OpenDML
Размер файла : 2,48 Гбайт
Продолжительность : 2 ч. 13 м.
Общий поток : 2664 Кбит/сек
Название фильма : Mononoke Hime 1997
Программа кодирования : VirtualDubModRus 1.5.10.2 (build 2542/release)

Видео
Идентификатор : 0
Формат : MPEG-4 Visual
Профиль формата : Advanced Simple@L5
Параметр BVOP формата : 2
Параметр QPel формата : Нет
Параметр GMC формата : Без точки перехода
Параметр матрицы формата : Выборочная
Идентификатор кодека : XVID
Идентификатор кодека/Подсказка : XviD
Продолжительность : 2 ч. 13 м.
Битрейт : 1879 Кбит/сек
Ширина : 720 пикселей
Высота : 384 пикселя
Соотношение сторон : 1,85:1
Частота кадров : 23,976 кадра/сек
Цветовое пространство : YUV
Субдискретизация насыщенности : 4:2:0
Битовая глубина : 8 бит
Тип развёртки : Прогрессивная
Метод сжатия : С потерями
Бит/(Пиксели*Кадры) : 0.284
Размер потока : 1,75 Гбайт (71%)
Библиотека кодирования : XviD 65

Аудио #1
Идентификатор : 1
Формат : AC-3
Формат/Информация : Audio Coding 3
Расширение режима : CM (complete main)
Параметр Endianness формата : Big
Идентификатор кодека : 2000
Продолжительность : 2 ч. 13 м.
Вид битрейта : Постоянный
Битрейт : 384 Кбит/сек
Каналы : 6 каналов
Расположение каналов : Front: L C R, Side: L R, LFE
Частота : 48,0 КГц
Битовая глубина : 16 бит
Метод сжатия : С потерями
Размер потока : 366 Мбайт (14%)
Выравнивание : Разделение по промежуткам
Продолжительность промежутка : 42 мс. (1,00 видеокадр)
Время предзагрузки промежутка : 500 мс.

Аудио #2
Идентификатор : 2
Формат : AC-3
Формат/Информация : Audio Coding 3
Расширение режима : CM (complete main)
Параметр Endianness формата : Big
Идентификатор кодека : 2000
Продолжительность : 2 ч. 13 м.
Вид битрейта : Постоянный
Битрейт : 384 Кбит/сек
Каналы : 6 каналов
Расположение каналов : Front: L C R, Side: L R, LFE
Частота : 48,0 КГц
Битовая глубина : 16 бит
Метод сжатия : С потерями
Размер потока : 366 Мбайт (14%)
Выравнивание : Разделение по промежуткам
Продолжительность промежутка : 42 мс. (1,00 видеокадр)
Время предзагрузки промежутка : 500 мс.



   Похожие торренты   Торрент   Размер 
В этой теме нет новых непрочитанных сообщений. Принцесса Мононоке / Princess Mononoke / Mononoke-hime (1997) BDRip от HQCLUB

537 | 46

2.18 ГБ

В этой теме нет новых непрочитанных сообщений. Принцесса Мононоке / Mononoke Hime / Princess Mononoke (1997) BDRip-AVC от MediaClub | D, P, P2, A

40 | 9

6.12 ГБ

В этой теме нет новых непрочитанных сообщений. Принцесса Мононоке / Mononoke Hime / Princess Mononoke (1997) BDRip-1080p (Hi10P) | D, P, P2, A

9 | 7

21.12 ГБ

В этой теме нет новых непрочитанных сообщений. Принцесса Мононоке / Mononoke Hime / Princess Mononoke (1997) BDRip 1080p от NNNB

171 | 19

7.76 ГБ

В этой теме нет новых непрочитанных сообщений. Принцесса Мононоке / Mononoke Hime / Princess Mononoke (1997) BDRip от KinoRay & Sheikn | P, P2, A

21 | 13

5.4 ГБ

В этой теме нет новых непрочитанных сообщений. Принцесса Мононоке / Princess Mononoke / Mononoke Hime (1997) HDTVRip от Youtracker | D

0 | 1

2.17 ГБ

В этой теме нет новых непрочитанных сообщений. Принцесса Мононоке / Princess Mononoke / Mononoke Hime (1997) HDRip от New-Team

570 | 34

1.46 ГБ




Вы не можете начинать темы
Вы не можете отвечать на сообщения
Вы не можете редактировать свои сообщения
Вы не можете удалять свои сообщения
Вы не можете добавлять вложения

Перейти:  
Для Мосгорсуда, Роскомнадзора и рекламодателей: mosgorsud-torrent[собачка]yandex.ru
 Вход
ppkBB3cker v.2 © 2008-2014 @ PPK
[ Time : 0.033s | 18 Queries | GZIP : Off ]

Торрент трекер RUTOR.IN, Не можете зайти на rutor.org? Какой новый адрес рутор? Какое зеркало рутор? Не работает rutor.org и зеркала? Тогда наш торрент специально для вас. Rutor.in неофициальное зеркало rutor. В случае если у Вас заблокирован rutor или вдруг Вы не можете на него зайти, то Вы без труда сможете скачать бесплатно и без рекламы последние новинки кино, игр, сериалов и прочего у нас, на Rutor.in. Не нужно использовать прокси, чтобы зайти на рутор, достаточно воспользоваться нашим ресурсом. Все новые фильмы, игры, сериалы, книги и музыка за 2013 и 2014 годы через торрент бесплатно. Скачивайте фильмы в хорошем качестве, игры для пк, xbox, playstation без регистрации. У нас вы найдете новые Зарубежные сериалы и Русские сериалы 2013, 2014, 2015 годов. Оставайтесь с нами, качайте любимые фильмы, игры, сериалы, книги и музыку.