img image001 image001 image001 image001 image001 image001 image001 image001 image001 image001 image001 image001 image001 image001 image001

Planets Sun Sun Sun
Статистика раздачи
Автор: PriZraK | Размер: 3.74 ГБ | Добавлен: 15 фев 2014
Раздают: 23    Качают: 15
Скачать торрент
Скачать торрент
Описание торрента

СообщениеДобавлено: 15 фев 2014 

Информация о фильме
Название: Я не от мира сего, но тоже любить хочу!
Оригинальное название: Chuunibyou demo Koi ga Shitai!
Год выхода: 2012
Жанр: комедия, романтика, драма, школа
Режиссер: Исихара Тацуя
В ролях: Акасаки Тинацу, Азуми Асакура, Маая Учида, Сумире Уэсака ...

О фильме:
Кто из нас не предавался юношеским грезам, воображая себя могучим магом, прекрасной принцессой, темным эльфом или светлым рыцарем? У кого-то иллюзии проходят вовремя, у кого-то принимают запущенную форму, доставляя серьезные проблемы автору и окружающим. Юта Тогаси перед поступлением в старшую школу окончательно пришел в себя, вынес из дома пластиковый меч, прочую мишуру и твердо решил двинуться дорогой взрослой сознательной жизни. Но как прикажете понимать новую соседку и одноклассницу Рикку Таканаси, что прячет под повязкой «дурной глаз» и не дает бедному Юте проходу, поскольку он «собрат по вере», а «темные» должны держаться друг друга?!

Конечно, приятно, когда к тебе липнет симпатичная девчонка, но в классе есть и другие красотки, с кем можно поговорить не только о черной магии, но и, кхм… о разном. Вот только милашка Рикка уже запала в душу и не отпускает, так и хочется иногда развернуть плечи во всю богатырскую мощь и крикнуть врагам: «Да сгиньте в темном пламени!» Впрочем, общение с другими школьницами показало главному герою, что прекрасный пол вообще любит веселых и интересных парней, даже если тщательно скрывает это, как красавица-староста Синка Нибутани. Короче, Юта, не торопись становиться скучным – настоящий мужчина одинаково хорош и в пределах реального мира, и на просторах Страны Фантазии!
© Hollow, World Art
Официальный сайт

Страна: Япония
Студия: Kyoto Animation
Продолжительность: (12 эп. + OVA), 25 мин.
Перевод:
RU - Любительский двухголосый закадровый (муж./жен.) от AniDub (озвучено 12 эп. + OVA)
UA - Любительский одноголосый закадровый (муж.) от UA MAX (озвучено 12 эп.)

Файл
Кодек: h.264 - 8bit;
Качество: BDRip 720p
Видео: 1280x720, ~ 1200kbps, 23,976 fps
Звук:
Rus - AC3; 48.0 kHz; 2.0 ch; 192 kbps - Cuba77 & Nika Lenina
Ukr - AC3; 48.0 kHz; 2.0 ch; 320 kbps - Ray
AniDub -Озвучивание: Cuba77 & Nika Lenina
Перевод на русский: Deep Kamate
Тайминг: Anterselva, Pauchok, Mirillis, Advik
Работа со звуком: Alessandro

UA MAX- Переклад: Gedet
Редагуванння: Русалка
Текст читали: Ray
Робота зі звуком: Ray
Студія: UA MAX

Постер: PhilosophUA

Общее
Уникальный идентификатор : 176616713157862881717651384388992779067 (0x84DF2443807F66BDB898A3C02BDA433B)
Полное имя : G:UA_MAXChuunibyou demo Koi ga Shitai!Chuunibyou demo Koi ga Shitai! - 01 (BD 1280x720 AVC AC3).mkv
Формат : Matroska
Версия формата : Version 2
Размер файла : 312 Мбайт
Продолжительность : 23 м.
Общий поток : 1832 Кбит/сек
Название фильма : Angel Beats! BD - Episode 01c Departure
Дата кодирования : UTC 2013-11-27 08:36:13
Программа кодирования : mkvmerge v4.2.0 ('No Talking') сборка от Jul 28 2010 18:38:23
Библиотека кодирования : libebml v1.0.0 + libmatroska v1.0.0

Видео
Идентификатор : 1
Формат : AVC
Формат/Информация : Advanced Video Codec
Профиль формата : High@L4.0
Параметр CABAC формата : Да
Параметр ReFrames формата : 6 кадров
Идентификатор кодека : V_MPEG4/ISO/AVC
Продолжительность : 23 м.
Битрейт : 1284 Кбит/сек
Ширина : 1280 пикселей
Высота : 720 пикселей
Соотношение сторон : 16:9
Режим частоты кадров : Постоянный
Частота кадров : 23,976 кадра/сек
Цветовое пространство : YUV
Субдискретизация насыщенности : 4:2:0
Битовая глубина : 8 бит
Тип развёртки : Прогрессивная
Бит/(Пиксели*Кадры) : 0.058
Размер потока : 219 Мбайт (70%)
Default : Да
Forced : Нет

Аудио #1
Идентификатор : 2
Формат : AC-3
Формат/Информация : Audio Coding 3
Расширение режима : CM (complete main)
Параметр Endianness формата : Big
Идентификатор кодека : A_AC3
Продолжительность : 23 м.
Вид битрейта : Постоянный
Битрейт : 192 Кбит/сек
Каналы : 2 канала
Расположение каналов : Front: L R
Частота : 48,0 КГц
Битовая глубина : 16 бит
Метод сжатия : С потерями
Размер потока : 32,7 Мбайт (10%)
Заголовок : Cuba77 & NikaLenina
Язык : Russian
Default : Да
Forced : Нет

Аудио #2
Идентификатор : 3
Формат : AC-3
Формат/Информация : Audio Coding 3
Расширение режима : CM (complete main)
Параметр Endianness формата : Big
Идентификатор кодека : A_AC3
Продолжительность : 23 м.
Вид битрейта : Постоянный
Битрейт : 320 Кбит/сек
Каналы : 2 канала
Расположение каналов : Front: L R
Частота : 48,0 КГц
Битовая глубина : 16 бит
Метод сжатия : С потерями
Размер потока : 54,5 Мбайт (17%)
Заголовок : UkrDub & UA MAX
Язык : Ukrainian
Default : Нет
Forced : Нет



Релиз от:



   Похожие торренты   Торрент   Размер 
В этой теме нет новых непрочитанных сообщений. Чудачество любви не помеха! ОВА / Chuunibyou Demo Koi ga Shitai! [OVA] (2013) BDRip 720p | AniFilm

43 | 3

229.2 МБ

В этой теме нет новых непрочитанных сообщений. Чудачество любви не помеха! (компиляция) / Takanashi Rikka Kai:Gekijouban Chuunibyou demo Koi ga Shitai! [Movie](2013) BDRip 1080p | AniFilm

36 | 15

7.17 ГБ

В этой теме нет новых непрочитанных сообщений. Сильные мира сего (2016) PDTVRip-AVC от SDARMY

329 | 6

732.08 МБ

В этой теме нет новых непрочитанных сообщений. Григорий Климов - Князь мира сего (2007) MP3

17 | 3

560.87 МБ

В этой теме нет новых непрочитанных сообщений. Климов Григорий - Князь мира сего [Аудиокнига] (2011) MP3

315 | 32

568.85 МБ

В этой теме нет новых непрочитанных сообщений. Семейка не от мира сего / Uchouten Kazoku [01-13 из 13] (2013) HDTV 720p | L2

10 | 6

3.71 ГБ

В этой теме нет новых непрочитанных сообщений. Сильные мира сего / Power Players [01-22] (2008-2009) SATRip

0 | 642

5.92 ГБ




Вы не можете начинать темы
Вы не можете отвечать на сообщения
Вы не можете редактировать свои сообщения
Вы не можете удалять свои сообщения
Вы не можете добавлять вложения

Перейти:  
Для Мосгорсуда, Роскомнадзора и рекламодателей: mosgorsud-torrent[собачка]yandex.ru
 Вход
ppkBB3cker v.2 © 2008-2014 @ PPK
[ Time : 0.048s | 15 Queries | GZIP : Off ]

Торрент трекер RUTOR.IN, Не можете зайти на rutor.org? Какой новый адрес рутор? Какое зеркало рутор? Не работает rutor.org и зеркала? Тогда наш торрент специально для вас. Rutor.in неофициальное зеркало rutor. В случае если у Вас заблокирован rutor или вдруг Вы не можете на него зайти, то Вы без труда сможете скачать бесплатно и без рекламы последние новинки кино, игр, сериалов и прочего у нас, на Rutor.in. Не нужно использовать прокси, чтобы зайти на рутор, достаточно воспользоваться нашим ресурсом. Все новые фильмы, игры, сериалы, книги и музыка за 2013 и 2014 годы через торрент бесплатно. Скачивайте фильмы в хорошем качестве, игры для пк, xbox, playstation без регистрации. У нас вы найдете новые Зарубежные сериалы и Русские сериалы 2013, 2014, 2015 годов. Оставайтесь с нами, качайте любимые фильмы, игры, сериалы, книги и музыку.