img image001 image001 image001 image001 image001 image001 image001 image001 image001 image001 image001 image001 image001 image001 image001

Planets Sun Sun Sun
Статистика раздачи
Автор: PriZraK | Размер: 4.94 ГБ | Добавлен: 15 фев 2014
Раздают: 14    Качают: 20
Скачать торрент
Скачать торрент
Описание торрента

СообщениеДобавлено: 15 фев 2014 

Информация о фильме
Название: Ну не может сестренка быть такой милой
Оригинальное название: Ore no Imouto ga Konnani Kawaii Wake ga Nai
Год выхода: 2010
Жанр: комедия
Режиссер: Камбэ Хироюки
В ролях: Юучи Накамура, Аяна Такэтацу, Сатоми Сато, Фумихико Татики, Акено Ватанабэ, Канехира Ямамото, Shintarô Nakano, Yuri Shinonaga, Томоюки Тераи, Кана Ханадзава ...

О фильме:
Семья Косака — самая обычная ячейка японского общества. Отец — строгий полицейский чиновник, мать — умелая хозяйка, 14-летняя Кирино — спортсменка и отличница, 17-летний Кёсукэ — доморощенный философ. Парень не раз удивлялся, почему последние несколько лет сестра отдалилась от него, свела общение к минимуму и пресекает всякие попытки просто поговорить? В итоге он мудро решил не лезть в тайны женской души и ждать, пока ситуация разрешится сама собой. Она и разрешилась — когда Кёсукэ нашел дома коробку с махо-сёдзё аниме, в которую была вложена игра для взрослых! Сложив два и два, юный детектив вычислил хозяина, и в награду был разбужен среди ночи крепкой оплеухой милой сестренки…

Кто бы удивился — виновница ночной побудки оказалась тайной отаку с ярко выраженным сестринским комплексом. Будучи красавицей скорее европейского типа (82-54-81, 165), Кирино давно работает моделью, а гонорары тратит на коллекцию аниме и эрогэ, посвященных отношениям героинь со старшими братьями. Тут-то Кёсукэ и понял смысл слова «сублимация», но на отчаянные протесты сестры спокойно ответил, что хочет понять ее, и в любом случае сохранит тайну. Слово — не воробей, и Кирино тут же объявила, что понять ее брат сможет, только совместно проходя эротические игры! Сможет ли герой выстоять и наладить отношения с сестрой, погрузившись в пугающий мир аниме, манги, эрогэ и косплея — мы скоро узнаем!
Официальный сайт

Страна: Япония
Студия: AIC
Продолжительность: 12 эп. + 4 спэшла по 25 мин.
Перевод:
RU - одноголосая (жен.) от Animedia (озвучено все 12 эп. + 4 спэшла)
UA - двухголосая (муж./жен.) от UA MAX(озвучено 12 эп. + 1 спэшл из 12 эп. + 4 спэшла)

Файл
Кодек: h.264 - 8bit
Качество: BDRip 720p
Видео: 1280x720, ~ 1200kbps, 23,976 fps
Звук:
Rus - AС3, 48000Hz, 192 Kbps, 2ch - Eladiell
Ukr - AC3, 48000Hz, 192 Kbps, 2ch - Ray & NikaLenina
Перевод: Dreamers team
Озвучка: Eladiel
Тайминг: Dark Man

Текст читали:
Ray та Nika Lenina,
а також Snovyda та Rise у кількох серіях

тайм:Ray, Rise, Wetka, Anaive

робота зi звуком: Rise

Переклад: Rise
Координація: Ray, Rise

Постер: Пан_Олександр

Общее
Уникальный идентификатор : 195125567148216455404124667434589200056 (0x92CBD13884529EF9B2D4B12D99EF9EB8)
Полное имя : G:UA_MAXOre no Imouto ga Konna ni Kawaii Wake ga NaiOre no Imouto ga Konna ni Kawaii Wake ga Nai - 01 (BD 1280x720 AVC AC3).mkv
Формат : Matroska
Версия формата : Version 2
Размер файла : 326 Мбайт
Продолжительность : 28 м.
Общий поток : 1602 Кбит/сек
Дата кодирования : UTC 2013-12-05 14:57:56
Программа кодирования : mkvmerge v4.2.0 ('No Talking') сборка от Jul 28 2010 18:38:23
Библиотека кодирования : libebml v1.0.0 + libmatroska v1.0.0

Видео
Идентификатор : 1
Формат : AVC
Формат/Информация : Advanced Video Codec
Профиль формата : High@L4.0
Параметр CABAC формата : Да
Параметр ReFrames формата : 6 кадров
Идентификатор кодека : V_MPEG4/ISO/AVC
Продолжительность : 28 м.
Битрейт : 1186 Кбит/сек
Ширина : 1280 пикселей
Высота : 720 пикселей
Соотношение сторон : 16:9
Режим частоты кадров : Постоянный
Частота кадров : 23,976 кадра/сек
Частота кадров в оригинале : 25,959 кадров/сек
Цветовое пространство : YUV
Субдискретизация насыщенности : 4:2:0
Битовая глубина : 8 бит
Тип развёртки : Прогрессивная
Бит/(Пиксели*Кадры) : 0.054
Размер потока : 242 Мбайт (74%)
Default : Да
Forced : Нет

Аудио #1
Идентификатор : 2
Формат : AC-3
Формат/Информация : Audio Coding 3
Расширение режима : CM (complete main)
Параметр Endianness формата : Big
Идентификатор кодека : A_AC3
Продолжительность : 28 м.
Вид битрейта : Постоянный
Битрейт : 192 Кбит/сек
Каналы : 2 канала
Расположение каналов : Front: L R
Частота : 48,0 КГц
Битовая глубина : 16 бит
Метод сжатия : С потерями
Размер потока : 39,1 Мбайт (12%)
Default : Да
Forced : Нет

Аудио #2
Идентификатор : 3
Формат : AC-3
Формат/Информация : Audio Coding 3
Расширение режима : CM (complete main)
Параметр Endianness формата : Big
Идентификатор кодека : A_AC3
Продолжительность : 28 м.
Вид битрейта : Постоянный
Битрейт : 192 Кбит/сек
Каналы : 2 канала
Расположение каналов : Front: L R
Частота : 48,0 КГц
Битовая глубина : 16 бит
Метод сжатия : С потерями
Размер потока : 39,1 Мбайт (12%)
Default : Нет
Forced : Нет



Релиз от:



   Похожие торренты   Торрент   Размер 
В этой теме нет новых непрочитанных сообщений. Моя сестренка не может быть такой милашкой / Ore no Imouto ga Konna ni Kawaii Wake ga Nai [S01-02] (2010-2013) HDTVRip | L1

14 | 24

12.87 ГБ

В этой теме нет новых непрочитанных сообщений. Сборник - Милой, Любимой, Единственной (2010) MP3

12 | 3

696.42 МБ

В этой теме нет новых непрочитанных сообщений. Клуб пыток / Chotto kawaii aian meiden (2014) BDRip 720p | L1

199 | 21

4.23 ГБ

В этой теме нет новых непрочитанных сообщений. Сестрёнка-моделистка / Plastic Nee-san [01-12 из 12] (2011) BDRip 720p | L2

20 | 6

386.51 МБ

В этой теме нет новых непрочитанных сообщений. Олег Тиньков - Я такой как все (2010) FB2

24 | 3

9.55 МБ

В этой теме нет новых непрочитанных сообщений. Олег Тиньков - Я такой как все (2010) DOC

0 | 1

7.75 МБ

В этой теме нет новых непрочитанных сообщений. Олег Тиньков - Я такой как все (2010) pdf

72 | 1

4.98 МБ




Вы не можете начинать темы
Вы не можете отвечать на сообщения
Вы не можете редактировать свои сообщения
Вы не можете удалять свои сообщения
Вы не можете добавлять вложения

Перейти:  
Для Мосгорсуда, Роскомнадзора и рекламодателей: mosgorsud-torrent[собачка]yandex.ru
 Вход
ppkBB3cker v.2 © 2008-2014 @ PPK
[ Time : 0.054s | 15 Queries | GZIP : Off ]

Торрент трекер RUTOR.IN, Не можете зайти на rutor.org? Какой новый адрес рутор? Какое зеркало рутор? Не работает rutor.org и зеркала? Тогда наш торрент специально для вас. Rutor.in неофициальное зеркало rutor. В случае если у Вас заблокирован rutor или вдруг Вы не можете на него зайти, то Вы без труда сможете скачать бесплатно и без рекламы последние новинки кино, игр, сериалов и прочего у нас, на Rutor.in. Не нужно использовать прокси, чтобы зайти на рутор, достаточно воспользоваться нашим ресурсом. Все новые фильмы, игры, сериалы, книги и музыка за 2013 и 2014 годы через торрент бесплатно. Скачивайте фильмы в хорошем качестве, игры для пк, xbox, playstation без регистрации. У нас вы найдете новые Зарубежные сериалы и Русские сериалы 2013, 2014, 2015 годов. Оставайтесь с нами, качайте любимые фильмы, игры, сериалы, книги и музыку.