img image001 image001 image001 image001 image001 image001 image001 image001 image001 image001 image001 image001 image001 image001 image001

Planets Sun Sun Sun
Статистика раздачи
Автор: PriZraK | Размер: 28.79 ГБ | Добавлен: 15 фев 2014
Раздают: 13    Качают: 7
Скачать торрент
Скачать торрент
Описание торрента

СообщениеДобавлено: 15 фев 2014 

Принцесса Мононоке / Mononoke Hime (Princess Mononoke)


Название: Принцесса МононокеОригинальное название: Mononoke Hime (Princess Mononoke)
Год выхода: 1997
Жанр: Приключения, фэнтези, драма, полнометражный



Режиссер: Хаяо Миядзаки

В ролях: Едзи Мацуда, Юрико Исида, Юко Танака, Каору Кобаяси, Масахико Нисимура, Цунэхико Камидзо, Суми Симамото, Тэцу Ватанабэ, Макото Сато, Акира Нагоя, Акихиро Мива, Мицуко Мори, Хисая Морисигэ



О фильме:
Средневековая Япония, середина XV века. В стране пылает междоусобная война. Молодой воин по имени Аситака из племени эмиси отправляется в лес великого божества Сисигами, чтобы очиститься от проклятия, перешедшее на него от обезумевшего Бога Кабанов. Произошло это, когда Аситака для спасения своей деревни вынужден был убить его. Необходимо торопиться, проклятье медленно, но верно убивает юного воина. На границе леса он находит поселение сталеваров, возглавляемое харизматичной Эбоси-годзэн. Вырубание леса для сталеваров – необходимый элемент производственного цикла. Им необходимо топливо. Благодаря производимому ими металлу и изготовляемому из него огнестрельному оружию они могут сохранить независимость от окружающих феодалов. Поселение Эбоси - прибежище прокаженных и беглых преступников. Людям противостоят разумные животные, населяющие леса, и их божества во главе с Богиней-волчицей и её воспитанницей - Сан, Принцессой-мононокэ ("мононокэ" по-японски - "разгневанный дух"). И те, и другие защищают свои интересы. И ни тем, ни другим просто некуда отступать. Третья сила в конфликте - шпионы императора, желающие использовать ситуацию, чтобы заполучить голову Сисигами, которая, по древней легенде, может дать бессмертие ее обладателю. Героизм и предательство, любовь и ненависть, извечная вражда и вновь зарождающееся доверие - в этом фильме есть всё.







Страна: Япония, Studio Ghibli
Продолжительность: 02:13:23
Перевод: Дублированный, профессиональный многоголосый, профессиональный двухголосый, авторский



Качество: BDRemux 1080p
Видео: MPEG-4 AVC, 25318 Кбит/с, 1920x1080, 23.976 кадр/с
Аудио 1: Русский (AC3, 5.1, 448 Кбит/с) - Дублированный (Реанимедиа)
Аудио 2: Русский (AC3, 5.1, 384 Кбит/с) - Профессиональный многоголосый (Киномания)
Аудио 3: Русский (AC3, 5.1, 384 Кбит/с) - Профессиональный двухголосый (Tycoon)
Аудио 4: Русский (AC3, 2.0, 192 Кбит/с) - Профессиональный многоголосый (VestVideo)
Аудио 5: Русский (AC3, 5.1, 448 Кбит/с) - Авторский (Артем Толстобров)
Аудио 6: Русский (AC3, 5.1, 384 Кбит/с) - Авторский (Андрей Гаврилов)
Аудио 7: Русский (AC3, 5.1, 384 Кбит/с) - Авторский (Сергей Визгунов)
Аудио 8: Русский (AC3, 2.0, 192 Кбит/с) - Авторский (Петр Гланц)
Аудио 9: Японский (DTS-HD MA, 5.1, 2316 Кбит/с) - Оригинал
Аудио 10: Английский (AC3, 5.1, 448 Кбит/с) - Дублированный

Субтитры 1: Русский (DVD RUSCICO)
Субтитры 2: Русский (DVD Kinomania)
Субтитры 3: Русский (DVD Tycoon)
Субтитры 4: Английские (Blu-Ray)
Релиз: nb92 (Кинозал)


Общее
Полное имя : E:Princess.Mononoke.1997.BDRemux.mkv
Формат : Matroska
Версия формата : Version 2
Размер файла : 28,8 Гбайт
Продолжительность : 2 ч. 13 м.
Режим общего битрейта : Переменный
Общий поток : 30,8 Мбит/сек
Название фильма : Princess Mononoke 1997
Дата кодирования : UTC 2013-12-18 20:18:47
Программа кодирования : mkvmerge v6.6.0 ('The Edge Of The In Between') built on Dec 1 2013 17:55:00
Библиотека кодирования : libebml v1.3.0 + libmatroska v1.4.1

Видео
Идентификатор : 1
Формат : AVC
Формат/Информация : Advanced Video Codec
Профиль формата : High@L4.1
Параметр CABAC формата : Да
Параметр ReFrames формата : 2 кадра
Идентификатор кодека : V_MPEG4/ISO/AVC
Продолжительность : 2 ч. 13 м.
Ширина : 1920 пикселей
Высота : 1080 пикселей
Соотношение сторон : 16:9
Режим частоты кадров : Постоянный
Частота кадров : 23,976 кадра/сек
Цветовое пространство : YUV
Субдискретизация насыщенности : 4:2:0
Битовая глубина : 8 бит
Тип развёртки : Прогрессивная
Язык : Japanese
Default : Да
Forced : Нет

Аудио #1
Идентификатор : 2
Формат : AC-3
Формат/Информация : Audio Coding 3
Расширение режима : CM (complete main)
Параметр Endianness формата : Big
Идентификатор кодека : A_AC3
Продолжительность : 2 ч. 13 м.
Вид битрейта : Постоянный
Битрейт : 448 Кбит/сек
Каналы : 6 каналов
Расположение каналов : Front: L C R, Side: L R, LFE
Частота : 48,0 КГц
Битовая глубина : 16 бит
Метод сжатия : С потерями
Размер потока : 428 Мбайт (1%)
Заголовок : DUB (Reanimedia) [DD 5.1 448 kbps]
Язык : Russian
Default : Да
Forced : Нет

Аудио #2
Идентификатор : 3
Формат : AC-3
Формат/Информация : Audio Coding 3
Расширение режима : CM (complete main)
Параметр Endianness формата : Big
Идентификатор кодека : A_AC3
Продолжительность : 2 ч. 13 м.
Вид битрейта : Постоянный
Битрейт : 384 Кбит/сек
Каналы : 6 каналов
Расположение каналов : Front: L C R, Side: L R, LFE
Частота : 48,0 КГц
Битовая глубина : 16 бит
Метод сжатия : С потерями
Размер потока : 367 Мбайт (1%)
Заголовок : MVO (Kinomania) [DD 5.1 384 kbps]
Язык : Russian
Default : Нет
Forced : Нет

Аудио #3
Идентификатор : 4
Формат : AC-3
Формат/Информация : Audio Coding 3
Расширение режима : CM (complete main)
Параметр Endianness формата : Big
Идентификатор кодека : A_AC3
Продолжительность : 2 ч. 13 м.
Вид битрейта : Постоянный
Битрейт : 384 Кбит/сек
Каналы : 6 каналов
Расположение каналов : Front: L C R, Side: L R, LFE
Частота : 48,0 КГц
Битовая глубина : 16 бит
Метод сжатия : С потерями
Размер потока : 367 Мбайт (1%)
Заголовок : MVO (Tycoon) [DD 5.1 384 kbps]
Язык : Russian
Default : Нет
Forced : Нет

Аудио #4
Идентификатор : 5
Формат : AC-3
Формат/Информация : Audio Coding 3
Расширение режима : CM (complete main)
Параметр Endianness формата : Big
Идентификатор кодека : A_AC3
Продолжительность : 2 ч. 13 м.
Вид битрейта : Постоянный
Битрейт : 192 Кбит/сек
Каналы : 2 канала
Расположение каналов : Front: L R
Частота : 48,0 КГц
Битовая глубина : 16 бит
Метод сжатия : С потерями
Размер потока : 184 Мбайт (1%)
Заголовок : MVO (VestVideo) [DD 2.0 192 kbps]
Язык : Russian
Default : Нет
Forced : Нет

Аудио #5
Идентификатор : 6
Формат : AC-3
Формат/Информация : Audio Coding 3
Расширение режима : CM (complete main)
Параметр Endianness формата : Big
Идентификатор кодека : A_AC3
Продолжительность : 2 ч. 13 м.
Вид битрейта : Постоянный
Битрейт : 448 Кбит/сек
Каналы : 6 каналов
Расположение каналов : Front: L C R, Side: L R, LFE
Частота : 48,0 КГц
Битовая глубина : 16 бит
Метод сжатия : С потерями
Размер потока : 428 Мбайт (1%)
Заголовок : AVO (Tolstobrov) [DD 5.1 448 kbps]
Язык : Russian
Default : Нет
Forced : Нет

Аудио #6
Идентификатор : 7
Формат : AC-3
Формат/Информация : Audio Coding 3
Расширение режима : CM (complete main)
Параметр Endianness формата : Big
Идентификатор кодека : A_AC3
Продолжительность : 2 ч. 13 м.
Вид битрейта : Постоянный
Битрейт : 384 Кбит/сек
Каналы : 6 каналов
Расположение каналов : Front: L C R, Side: L R, LFE
Частота : 48,0 КГц
Битовая глубина : 16 бит
Метод сжатия : С потерями
Размер потока : 367 Мбайт (1%)
Заголовок : AVO (Gavrilov) [DD 5.1 384 kbps]
Язык : Russian
Default : Нет
Forced : Нет

Аудио #7
Идентификатор : 8
Формат : AC-3
Формат/Информация : Audio Coding 3
Расширение режима : CM (complete main)
Параметр Endianness формата : Big
Идентификатор кодека : A_AC3
Продолжительность : 2 ч. 13 м.
Вид битрейта : Постоянный
Битрейт : 384 Кбит/сек
Каналы : 6 каналов
Расположение каналов : Front: L C R, Side: L R, LFE
Частота : 48,0 КГц
Битовая глубина : 16 бит
Метод сжатия : С потерями
Размер потока : 367 Мбайт (1%)
Заголовок : AVO (Vizgunov) [DD 5.1 384 kbps]
Язык : Russian
Default : Нет
Forced : Нет

Аудио #8
Идентификатор : 9
Формат : AC-3
Формат/Информация : Audio Coding 3
Расширение режима : CM (complete main)
Параметр Endianness формата : Big
Идентификатор кодека : A_AC3
Продолжительность : 2 ч. 13 м.
Вид битрейта : Постоянный
Битрейт : 192 Кбит/сек
Каналы : 2 канала
Расположение каналов : Front: L R
Частота : 48,0 КГц
Битовая глубина : 16 бит
Метод сжатия : С потерями
Размер потока : 184 Мбайт (1%)
Заголовок : AVO (Glanz) [DD 2.0 192 kbps]
Язык : Russian
Default : Нет
Forced : Нет

Аудио #9
Идентификатор : 10
Формат : DTS
Формат/Информация : Digital Theater Systems
Профиль формата : MA / Core
Режим : 16
Параметр Endianness формата : Big
Идентификатор кодека : A_DTS
Продолжительность : 2 ч. 13 м.
Вид битрейта : Переменный
Битрейт : Неизвестно / 1509 Кбит/сек
Каналы : 6 каналов
Расположение каналов : Front: L C R, Side: L R, LFE
Частота : 48,0 КГц
Битовая глубина : 16 бит
Метод сжатия : Без потерь / Lossy
Заголовок : Original [DTS-HD MA 5.1 ch, 2316kbps]
Язык : Japanese
Default : Нет
Forced : Нет

Аудио #10
Идентификатор : 11
Формат : AC-3
Формат/Информация : Audio Coding 3
Расширение режима : CM (complete main)
Параметр Endianness формата : Big
Идентификатор кодека : A_AC3
Продолжительность : 2 ч. 13 м.
Вид битрейта : Постоянный
Битрейт : 448 Кбит/сек
Каналы : 6 каналов
Расположение каналов : Front: L C R, Side: L R, LFE
Частота : 48,0 КГц
Битовая глубина : 16 бит
Метод сжатия : С потерями
Размер потока : 428 Мбайт (1%)
Заголовок : DUB [DD 5.1 448 kbps]
Язык : English
Default : Нет
Forced : Нет

Текст #1
Идентификатор : 12
Формат : UTF-8
Идентификатор кодека : S_TEXT/UTF8
Идентификатор кодека/Информация : UTF-8 Plain Text
Заголовок : DVD (RUCSICO)
Язык : Russian
Default : Нет
Forced : Нет

Текст #2
Идентификатор : 13
Формат : UTF-8
Идентификатор кодека : S_TEXT/UTF8
Идентификатор кодека/Информация : UTF-8 Plain Text
Заголовок : DVD (Kinomania)
Язык : Russian
Default : Нет
Forced : Нет

Текст #3
Идентификатор : 14
Формат : UTF-8
Идентификатор кодека : S_TEXT/UTF8
Идентификатор кодека/Информация : UTF-8 Plain Text
Заголовок : DVD (Tycoon)
Язык : Russian
Default : Нет
Forced : Нет

Текст #4
Идентификатор : 15
Формат : UTF-8
Идентификатор кодека : S_TEXT/UTF8
Идентификатор кодека/Информация : UTF-8 Plain Text
Язык : English
Default : Нет
Forced : Нет

Меню
00:00:00.000 : en:Chapter 1
00:01:09.194 : en:Chapter 2
00:07:31.033 : en:Chapter 3
00:12:27.246 : en:Chapter 4
00:18:47.376 : en:Chapter 5
00:23:12.933 : en:Chapter 6
00:28:48.852 : en:Chapter 7
00:32:54.347 : en:Chapter 8
00:38:44.780 : en:Chapter 9
00:44:17.112 : en:Chapter 10
00:49:39.184 : en:Chapter 11
00:54:40.694 : en:Chapter 12
00:59:35.863 : en:Chapter 13
01:05:06.318 : en:Chapter 14
01:07:44.351 : en:Chapter 15
01:12:41.982 : en:Chapter 16
01:17:24.431 : en:Chapter 17
01:22:26.566 : en:Chapter 18
01:27:24.280 : en:Chapter 19
01:33:21.429 : en:Chapter 20
01:38:19.143 : en:Chapter 21
01:43:08.306 : en:Chapter 22
01:48:14.487 : en:Chapter 23
01:52:27.240 : en:Chapter 24
01:57:30.209 : en:Chapter 25
02:02:37.224 : en:Chapter 26
02:05:21.305 : en:Chapter 27
02:08:31.203 : en:Chapter 28
02:13:21.910 : en:Chapter 29



   Похожие торренты   Торрент   Размер 
В этой теме нет новых непрочитанных сообщений. Принцесса Мононоке / Mononoke Hime / Princess Mononoke (1997) BDRip-1080p (Hi10P) | D, P, P2, A

9 | 7

21.12 ГБ

В этой теме нет новых непрочитанных сообщений. Принцесса Мононоке / Mononoke Hime / Princess Mononoke (1997) BDRip 1080p от NNNB

171 | 19

7.76 ГБ

В этой теме нет новых непрочитанных сообщений. Принцесса Мононоке / Princess Mononoke / Mononoke-hime (1997) BDRip от HQCLUB

537 | 46

2.18 ГБ

В этой теме нет новых непрочитанных сообщений. Принцесса Мононоке / Princess Mononoke / Mononoke Hime (1997) HDRip от New-Team

39 | 7

2.18 ГБ

В этой теме нет новых непрочитанных сообщений. Принцесса Мононоке / Princess Mononoke / Mononoke Hime (1997) HDTVRip от Youtracker | D

0 | 1

2.17 ГБ

В этой теме нет новых непрочитанных сообщений. Принцесса Мононоке / Mononoke Hime / Princess Mononoke (1997) BDRip-AVC от MediaClub | D, P, P2, A

40 | 9

6.12 ГБ

В этой теме нет новых непрочитанных сообщений. Принцесса Мононоке / Princess Mononoke / Mononoke Hime (1997) HDRip от New-Team

53 | 20

798.49 МБ




Вы не можете начинать темы
Вы не можете отвечать на сообщения
Вы не можете редактировать свои сообщения
Вы не можете удалять свои сообщения
Вы не можете добавлять вложения

Перейти:  
Для Мосгорсуда, Роскомнадзора и рекламодателей: mosgorsud-torrent[собачка]yandex.ru
 Вход
ppkBB3cker v.2 © 2008-2014 @ PPK
[ Time : 0.049s | 16 Queries | GZIP : Off ]

Торрент трекер RUTOR.IN, Не можете зайти на rutor.org? Какой новый адрес рутор? Какое зеркало рутор? Не работает rutor.org и зеркала? Тогда наш торрент специально для вас. Rutor.in неофициальное зеркало rutor. В случае если у Вас заблокирован rutor или вдруг Вы не можете на него зайти, то Вы без труда сможете скачать бесплатно и без рекламы последние новинки кино, игр, сериалов и прочего у нас, на Rutor.in. Не нужно использовать прокси, чтобы зайти на рутор, достаточно воспользоваться нашим ресурсом. Все новые фильмы, игры, сериалы, книги и музыка за 2013 и 2014 годы через торрент бесплатно. Скачивайте фильмы в хорошем качестве, игры для пк, xbox, playstation без регистрации. У нас вы найдете новые Зарубежные сериалы и Русские сериалы 2013, 2014, 2015 годов. Оставайтесь с нами, качайте любимые фильмы, игры, сериалы, книги и музыку.
cron