img image001 image001 image001 image001 image001 image001 image001 image001 image001 image001 image001 image001 image001 image001 image001

Planets Sun Sun Sun
Статистика раздачи
Автор: PriZraK | Размер: 15.15 ГБ | Добавлен: 15 фев 2014
Раздают: 148    Качают: 9
Скачать торрент
Скачать торрент
Описание торрента

СообщениеДобавлено: 15 фев 2014 

Название: Навсикая из Долины ветров
Оригинальное название: Kaze no tani no Naushika (Nausicaa from the Valley of the Wind)
Год выпуска: 1984
Жанр: Аниме, мультфильм, фантастика, фэнтези, драма
Выпущено: Япония, Hakuhodo Incorporated, Nibariki, Tokuma Shoten, Topcraft
Режиссер: Хаяо Миядзаки
В ролях: Суми Симамото, Махито Цудзимура, Хисако Кеда, Горо Ная, Икиро Нагаи, Кохэй Мияучи, Дзедзи Янами, Минору Яда, Рихоко Есида, Масако Сугая

О фильме: В будущем человечество, столетиями безоглядно эксплуатировавшее природу, пало жертвой своей гордыни. Землю постигла ужасная экологическая катастрофа, процветающие когда-то промышленные цивилизации обратились в прах, а поверхность планеты покрыло гигантское море Леса, испускающее в атмосферу ядовитые споры своих растений. Оставшимся в живых людям приходится жить в тени Леса и его чудовищных насекомообразных обитателей, пытаясь не допустить распространения вредоносной растительности. Мирная Долина Ветров — одно из царств, образовавшихся на руинах прежних государств. Жители Долины обожают своего доброго правителя и его дочь Навсикаю, необычную девочку, находящую общий язык с исполинскими насекомыми Леса - странными порождениями нарушенной экосистемы. Но безмятежное существование Долины Ветров нарушается, когда маленькая страна становится пешкой в играх крупных воинственных соседей, сражающихся за остатки драгоценных природных ресурсов планеты. Тем не менее, скрытому потенциалу Навсикаи ещё предстоит раскрыться, и юной принцессе, возможно, удастся изменить судьбы мира…

Качество: BDRip 1080p
Размер: 15.15 ГБ
Продолжительность: 01:57:02

Видео: MPEG-4 AVC, 14.3 Мбит/с, 1920x1036
Аудио 1: русский, 48 kHz, AC3, 2 ch, 448 kbps avg, [Дублированный, Ruscico]
Аудио 2: русский, 48 kHz, AC3, 2 ch, 192 kbps avg, [Профессиональный многоголосый, Киномания]
Аудио 3: русский, 48 kHz, AC3, 2 ch, 192 kbps avg, [Профессиональный многоголосый, Tycoon]
Аудио 4: русский, 48 kHz, DTS, 2 ch, 1509 kbps avg, [Авторский, Андрей Гаврилов]
Аудио 5: русский, 48 kHz, AC3, 2 ch, 192 kbps avg, [Авторский, Юрий Сербин]
Аудио 6: русский, 48 kHz, AC3, 2 ch, 192 kbps avg, [Авторский, Артём Толстобров]
Аудио 7: японский, 48 kHz, DTS, 2 ch, 1509 kbps avg, [Оригинал]
Субтитры 1: русские
Субтитры 2: английские

Исходник: delo2006 (HDTracker)

Сравнение с исходником



Жорж, 2008 год
Номинации (1):
Лучший анимационный фильм
Общее
Уникальный идентификатор : 233714738468886534208589175946676084151 (0xAFD3D2426ED43987808753A11CD51DB7)
Полное имя : E:VideoNavsikaja.1984.x264.BDRip.1080p.mkv
Формат : Matroska
Версия формата : Version 4 / Version 2
Размер файла : 15,2 Гбайт
Продолжительность : 1 ч. 57 м.
Общий поток : 18,5 Мбит/сек
Название фильма : Навсикая из долины ветров / Kaze no tani no Naushika / 1984 / BDRip -- STarankov
Дата кодирования : UTC 2013-12-19 10:55:35
Программа кодирования : mkvmerge v6.6.0 ('The Edge Of The In Between') built on Dec 1 2013 17:55:00
Библиотека кодирования : libebml v1.3.0 + libmatroska v1.4.1

Видео
Идентификатор : 1
Формат : AVC
Формат/Информация : Advanced Video Codec
Профиль формата : High@L4.1
Параметр CABAC формата : Да
Параметр ReFrames формата : 4 кадра
Идентификатор кодека : V_MPEG4/ISO/AVC
Продолжительность : 1 ч. 57 м.
Битрейт : 14,3 Мбит/сек
Ширина : 1920 пикселей
Высота : 1036 пикселей
Соотношение сторон : 1,85:1
Режим частоты кадров : Постоянный
Частота кадров : 23,976 кадра/сек
Цветовое пространство : YUV
Субдискретизация насыщенности : 4:2:0
Битовая глубина : 8 бит
Тип развёртки : Прогрессивная
Бит/(Пиксели*Кадры) : 0.300
Размер потока : 11,4 Гбайт (75%)
Библиотека кодирования : x264 core 138 r2358 9e941d1
Настройки программы : cabac=1 / ref=4 / deblock=1:1:1 / analyse=0x3:0x113 / me=umh / subme=10 / psy=1 / psy_rd=0.40:0.00 / mixed_ref=1 / me_range=24 / chroma_me=1 / trellis=2 / 8x8dct=1 / cqm=0 / deadzone=21,11 / fast_pskip=0 / chroma_qp_offset=-2 / threads=6 / lookahead_threads=1 / sliced_threads=0 / nr=0 / decimate=0 / interlaced=0 / bluray_compat=0 / constrained_intra=0 / bframes=8 / b_pyramid=2 / b_adapt=2 / b_bias=0 / direct=3 / weightb=1 / open_gop=0 / weightp=2 / keyint=230 / keyint_min=23 / scenecut=40 / intra_refresh=0 / rc_lookahead=40 / rc=2pass / mbtree=1 / bitrate=14300 / ratetol=1.0 / qcomp=0.60 / qpmin=0 / qpmax=69 / qpstep=4 / cplxblur=20.0 / qblur=0.5 / vbv_maxrate=50000 / vbv_bufsize=62500 / nal_hrd=none / ip_ratio=1.40 / aq=1:0.60
Язык : Japanese
Default : Да
Forced : Нет

Аудио #1
Идентификатор : 2
Формат : AC-3
Формат/Информация : Audio Coding 3
Расширение режима : CM (complete main)
Параметр Endianness формата : Big
Идентификатор кодека : A_AC3
Продолжительность : 1 ч. 57 м.
Вид битрейта : Постоянный
Битрейт : 448 Кбит/сек
Каналы : 2 канала
Расположение каналов : Front: L R
Частота : 48,0 КГц
Битовая глубина : 16 бит
Метод сжатия : С потерями
Размер потока : 375 Мбайт (2%)
Заголовок : DUB (Ruscico)
Язык : Russian
Default : Да
Forced : Нет

Аудио #2
Идентификатор : 3
Формат : AC-3
Формат/Информация : Audio Coding 3
Расширение режима : CM (complete main)
Параметр Endianness формата : Big
Идентификатор кодека : A_AC3
Продолжительность : 1 ч. 57 м.
Вид битрейта : Постоянный
Битрейт : 192 Кбит/сек
Каналы : 2 канала
Расположение каналов : Front: L R
Частота : 48,0 КГц
Битовая глубина : 16 бит
Метод сжатия : С потерями
Размер потока : 161 Мбайт (1%)
Заголовок : MVO (Киномания)
Язык : Russian
Default : Нет
Forced : Нет

Аудио #3
Идентификатор : 4
Формат : AC-3
Формат/Информация : Audio Coding 3
Расширение режима : CM (complete main)
Параметр Endianness формата : Big
Идентификатор кодека : A_AC3
Продолжительность : 1 ч. 57 м.
Вид битрейта : Постоянный
Битрейт : 192 Кбит/сек
Каналы : 2 канала
Расположение каналов : Front: L R
Частота : 48,0 КГц
Битовая глубина : 16 бит
Метод сжатия : С потерями
Размер потока : 161 Мбайт (1%)
Заголовок : MVO (студия Tycoon)
Язык : Russian
Default : Нет
Forced : Нет

Аудио #4
Идентификатор : 5
Формат : DTS
Формат/Информация : Digital Theater Systems
Режим : 16
Параметр Endianness формата : Big
Идентификатор кодека : A_DTS
Продолжительность : 1 ч. 57 м.
Вид битрейта : Постоянный
Битрейт : 1509 Кбит/сек
Каналы : 2 канала
Расположение каналов : Front: L R
Частота : 48,0 КГц
Битовая глубина : 24 бит
Метод сжатия : С потерями
Размер потока : 1,23 Гбайт (8%)
Заголовок : AVO (Андрей Гаврилов)
Язык : Russian
Default : Нет
Forced : Нет

Аудио #5
Идентификатор : 6
Формат : AC-3
Формат/Информация : Audio Coding 3
Расширение режима : CM (complete main)
Параметр Endianness формата : Big
Идентификатор кодека : A_AC3
Продолжительность : 1 ч. 57 м.
Вид битрейта : Постоянный
Битрейт : 192 Кбит/сек
Каналы : 2 канала
Расположение каналов : Front: L R
Частота : 48,0 КГц
Битовая глубина : 16 бит
Метод сжатия : С потерями
Размер потока : 161 Мбайт (1%)
Заголовок : AVO (Юрий Сербин)
Язык : Russian
Default : Нет
Forced : Нет

Аудио #6
Идентификатор : 7
Формат : AC-3
Формат/Информация : Audio Coding 3
Расширение режима : CM (complete main)
Параметр Endianness формата : Big
Идентификатор кодека : A_AC3
Продолжительность : 1 ч. 57 м.
Вид битрейта : Постоянный
Битрейт : 192 Кбит/сек
Каналы : 2 канала
Расположение каналов : Front: L R
Частота : 48,0 КГц
Битовая глубина : 16 бит
Метод сжатия : С потерями
Размер потока : 161 Мбайт (1%)
Заголовок : AVO (Артём Толстобров)
Язык : Russian
Default : Нет
Forced : Нет

Аудио #7
Идентификатор : 8
Формат : DTS
Формат/Информация : Digital Theater Systems
Режим : 16
Параметр Endianness формата : Big
Идентификатор кодека : A_DTS
Продолжительность : 1 ч. 57 м.
Вид битрейта : Постоянный
Битрейт : 1509 Кбит/сек
Каналы : 2 канала
Расположение каналов : Front: L R
Частота : 48,0 КГц
Битовая глубина : 24 бит
Метод сжатия : С потерями
Размер потока : 1,23 Гбайт (8%)
Заголовок : Original
Язык : Japanese
Default : Нет
Forced : Нет

Текст #1
Идентификатор : 9
Формат : UTF-8
Идентификатор кодека : S_TEXT/UTF8
Идентификатор кодека/Информация : UTF-8 Plain Text
Заголовок : русский
Язык : Russian
Default : Нет
Forced : Нет

Текст #2
Идентификатор : 10
Формат : UTF-8
Идентификатор кодека : S_TEXT/UTF8
Идентификатор кодека/Информация : UTF-8 Plain Text
Заголовок : английский
Default : Нет
Forced : Нет

---[Information] [18.12.2013 15:22:19] avs [info]: 1920x1036p 1:1 @ 24000/1001 fps (cfr)
---[Information] [18.12.2013 15:22:19] x264 [info]: using SAR=1/1
---[Information] [18.12.2013 15:22:19] x264 [info]: using cpu capabilities: MMX2 SSE2Fast SSSE3 SSE4.2
---[Information] [18.12.2013 15:22:19] x264 [info]: profile High, level 4.1
---[Information] [19.12.2013 15:42:38] x264 [info]: frame I:1243 Avg QP:19.87 size:275184
---[Information] [19.12.2013 15:42:39] x264 [info]: frame P:33447 Avg QP:23.02 size:118963
---[Information] [19.12.2013 15:42:39] x264 [info]: frame B:133668 Avg QP:24.40 size: 61576
---[Information] [19.12.2013 15:42:39] x264 [info]: consecutive B-frames: 1.8% 2.0% 5.4% 9.4% 12.3% 58.8% 6.9% 1.6% 1.8%
---[Information] [19.12.2013 15:42:39] x264 [info]: mb I I16..4: 2.9% 93.8% 3.3%
---[Information] [19.12.2013 15:42:39] x264 [info]: mb P I16..4: 1.0% 29.0% 0.5% P16..4: 35.1% 21.7% 9.0% 0.0% 0.0% skip: 3.7%
---[Information] [19.12.2013 15:42:39] x264 [info]: mb B I16..4: 0.0% 5.4% 0.0% B16..8: 35.2% 14.5% 3.5% direct:10.4% skip:30.9% L0:44.5% L1:42.4% BI:13.1%
---[Information] [19.12.2013 15:42:39] x264 [info]: 8x8 transform intra:96.3% inter:88.5%
---[Information] [19.12.2013 15:42:39] x264 [info]: direct mvs spatial:97.2% temporal:2.8%
---[Information] [19.12.2013 15:42:39] x264 [info]: coded y,uvDC,uvAC intra: 94.3% 74.9% 47.2% inter: 47.8% 29.9% 7.6%
---[Information] [19.12.2013 15:42:39] x264 [info]: i16 v,h,dc,p: 27% 17% 29% 28%
---[Information] [19.12.2013 15:42:39] x264 [info]: i8 v,h,dc,ddl,ddr,vr,hd,vl,hu: 6% 5% 14% 12% 14% 11% 13% 11% 13%
---[Information] [19.12.2013 15:42:39] x264 [info]: i4 v,h,dc,ddl,ddr,vr,hd,vl,hu: 11% 8% 5% 9% 15% 14% 13% 11% 13%
---[Information] [19.12.2013 15:42:39] x264 [info]: i8c dc,h,v,p: 43% 27% 18% 12%
---[Information] [19.12.2013 15:42:39] x264 [info]: Weighted P-Frames: Y:12.6% UV:2.7%
---[Information] [19.12.2013 15:42:39] x264 [info]: ref P L0: 39.5% 9.7% 32.1% 15.8% 2.9% 0.1%
---[Information] [19.12.2013 15:42:39] x264 [info]: ref B L0: 77.8% 17.3% 4.9%
---[Information] [19.12.2013 15:42:39] x264 [info]: ref B L1: 90.0% 10.0%
---[Information] [19.12.2013 15:42:39] x264 [info]: kb/s:14300.08
---[Information] [19.12.2013 15:42:39] encoded 168358 frames, 1.92 fps, 14300.08 kb/s
--[Information] [19.12.2013 15:42:47] Final statistics
---[Information] [19.12.2013 15:42:47] Video Bitrate Desired: 14300 kbit/s
---[Information] [19.12.2013 15:42:47] Video Bitrate Obtained (approximate): 14301 kbit/s
--[Information] [19.12.2013 15:42:47] MediaInfo
---[Information] File: E:RipNavsikaja.1984.x264.BDRipNavsikaja.1984.x264.BDRip.1080p.mkv





   Похожие торренты   Торрент   Размер 
В этой теме нет новых непрочитанных сообщений. Навсикая из Долины Ветров / Kaze no tani no Naushika (1984) BDRip-1080p от Stranik 2.0 | D, P, A

19 | 8

14.71 ГБ

В этой теме нет новых непрочитанных сообщений. Навсикая из Долины Ветров / Kaze no tani no Naushika (1984) BDRip от Stranik 2.0 | D

451 | 20

1.98 ГБ

В этой теме нет новых непрочитанных сообщений. Навсикая из Долины Ветров / Kaze no tani no Naushika (1984) BDRip-720p от Stranik 2.0 | D, P, A

10 | 1

4.69 ГБ

В этой теме нет новых непрочитанных сообщений. Навсикая из Долины Ветров / Kaze no tani no Naushika (1984) DVD5

3 | 4

4.32 ГБ

В этой теме нет новых непрочитанных сообщений. Joe Hisaishi, Junko Miyagi - Навсикая из Долины Ветров / Kaze no tani no Naushika [6 CD] (1983-2004) FLAC

10 | 1

1.24 ГБ

В этой теме нет новых непрочитанных сообщений. Навсикая из Долины Ветров / Kaze no tani no Nausicaä / Nausicaä of the Valley of Wind (1984) DVDRip

31 | 9

2.28 ГБ

В этой теме нет новых непрочитанных сообщений. Во всём виноват Рио / Blame It on Rio (1984) BDRip 1080p by msltel

21 | 30

11.23 ГБ




Вы не можете начинать темы
Вы не можете отвечать на сообщения
Вы не можете редактировать свои сообщения
Вы не можете удалять свои сообщения
Вы не можете добавлять вложения

Перейти:  
Для Мосгорсуда, Роскомнадзора и рекламодателей: mosgorsud-torrent[собачка]yandex.ru
 Вход
ppkBB3cker v.2 © 2008-2014 @ PPK
[ Time : 0.049s | 16 Queries | GZIP : Off ]

cron