img image001 image001 image001 image001 image001 image001 image001 image001 image001 image001 image001 image001 image001 image001 image001

Planets Sun Sun Sun
Статистика раздачи
Автор: PriZraK | Размер: 2.35 ГБ | Добавлен: 15 фев 2014
Раздают: 11    Качают: 14
Скачать торрент
Скачать торрент
Описание торрента

СообщениеДобавлено: 15 фев 2014 

Название: Со склонов Кокурико
Оригинальное название: Kokuriko-zaka kara
Год выпуска: 2011
Жанр: Аниме, мультфильм, драма
Выпущено: Япония, Studio Ghibli
Режиссер: Горо Миядзаки
В ролях: Масами Нагасава, Дзюнъити Окада, Кэйко Такэсита, Юрико Исида, Дзюн Фубуки, Такаси Найто, Сюнсукэ Кадзама, Нао Омори, Тэруюки Кагава

О фильме: Действие разворачивается в 1963 году близ Иокогамы. У героини, Уми Комацудзаки, отец, командир корабля, погибает во время Корейской войны 10 лет назад, когда она была ещё маленькой девочкой. В то время как её мать находится в отъезде, девочке приходится принять хозяйство на себя, в частности, не забывать каждое утро поднимать флажки — такое правило поставил отец, чтобы видеть с моря, что его ожидают дома. В городке имеется школьный клуб, с разнообразными секциями по интересам. Проблема этого клуба в том, что его хотят закрыть, тем более, что здание, в котором он базируется, уже обветшало. И вот Уми, вместе с другими школьными активистами должна ехать в Токио к спонсору школы, чтобы спасти дом от разрушения. На фоне общественной деятельности просыпается первая любовь.

Качество: BDRip
Видео: XviD, 1902 Кбит/с, 720x384
Аудио: Русский, японский (AC3, 5 ch, 448 Кбит/с)
Размер: 2.35 ГБ
Продолжительность: 01:30:51
Перевод: Дублированный, профессиональный многоголосый, авторский (Андрей Гаврилов)
Субтитры: Русские, английские

Исходник: delo2006 (HDTracker)

Сравнение с исходником



Общее
Полное имя : E:VideoSo.sklonov.Kokuriko.2011.XviD.BDRipSo.sklonov.Kokuriko.2011.AVO.rus.А.Гаврилов.ac3
Формат : AC-3
Формат/Информация : Audio Coding 3
Размер файла : 291 Мбайт
Продолжительность : 1 ч. 30 м.
Режим общего битрейта : Постоянный
Общий поток : 448 Кбит/сек

Аудио
Формат : AC-3
Формат/Информация : Audio Coding 3
Расширение режима : CM (complete main)
Параметр Endianness формата : Big
Продолжительность : 1 ч. 30 м.
Вид битрейта : Постоянный
Битрейт : 448 Кбит/сек
Каналы : 5 каналов
Расположение каналов : Front: L C R, Side: L R
Частота : 48,0 КГц
Битовая глубина : 16 бит
Метод сжатия : С потерями
Размер потока : 291 Мбайт (100%)

Общее
Полное имя : E:VideoSo.sklonov.Kokuriko.2011.XviD.BDRipSo.sklonov.Kokuriko.2011.eng.srt
Формат : SubRip
Размер файла : 57,6 Кбайт

Текст
Формат : SubRip
Метод сжатия : Без потерь

Общее
Полное имя : E:VideoSo.sklonov.Kokuriko.2011.XviD.BDRipSo.sklonov.Kokuriko.2011.Original.jpn.ac3
Формат : AC-3
Формат/Информация : Audio Coding 3
Размер файла : 291 Мбайт
Продолжительность : 1 ч. 30 м.
Режим общего битрейта : Постоянный
Общий поток : 448 Кбит/сек

Аудио
Формат : AC-3
Формат/Информация : Audio Coding 3
Расширение режима : CM (complete main)
Параметр Endianness формата : Big
Продолжительность : 1 ч. 30 м.
Вид битрейта : Постоянный
Битрейт : 448 Кбит/сек
Каналы : 5 каналов
Расположение каналов : Front: L C R, Side: L R
Частота : 48,0 КГц
Битовая глубина : 16 бит
Метод сжатия : С потерями
Размер потока : 291 Мбайт (100%)

Общее
Полное имя : E:VideoSo.sklonov.Kokuriko.2011.XviD.BDRipSo.sklonov.Kokuriko.2011.rus.srt
Формат : SubRip
Размер файла : 78,0 Кбайт

Текст
Формат : SubRip
Метод сжатия : Без потерь

Общее
Полное имя : E:VideoSo.sklonov.Kokuriko.2011.XviD.BDRipSo.sklonov.Kokuriko.2011.XviD.BDRip.avi
Формат : AVI
Формат/Информация : Audio Video Interleave
Размер файла : 1,78 Гбайт
Продолжительность : 1 ч. 30 м.
Общий поток : 2812 Кбит/сек
Программа кодирования : VirtualDubMod 1.5.10.2 (build 2540/release)
Библиотека кодирования : VirtualDubMod build 2540/release

Видео
Идентификатор : 0
Формат : MPEG-4 Visual
Профиль формата : Advanced Simple@L5
Параметр BVOP формата : 1
Параметр QPel формата : Нет
Параметр GMC формата : Без точки перехода
Параметр матрицы формата : Default (H.263)
Режим смешивания : Сжатый битовый поток
Идентификатор кодека : XVID
Идентификатор кодека/Подсказка : XviD
Продолжительность : 1 ч. 30 м.
Битрейт : 1902 Кбит/сек
Ширина : 720 пикселей
Высота : 384 пикселя
Соотношение сторон : 1,85:1
Частота кадров : 23,976 кадра/сек
Цветовое пространство : YUV
Субдискретизация насыщенности : 4:2:0
Битовая глубина : 8 бит
Тип развёртки : Прогрессивная
Метод сжатия : С потерями
Бит/(Пиксели*Кадры) : 0.287
Размер потока : 1,21 Гбайт (68%)
Библиотека кодирования : XviD 1.2.1 (UTC 2008-12-04)

Аудио #1
Идентификатор : 1
Формат : AC-3
Формат/Информация : Audio Coding 3
Расширение режима : CM (complete main)
Параметр Endianness формата : Big
Идентификатор кодека : 2000
Продолжительность : 1 ч. 30 м.
Вид битрейта : Постоянный
Битрейт : 448 Кбит/сек
Каналы : 6 каналов
Original Channel count : 5 каналов
Расположение каналов : Front: L C R, Side: L R
Частота : 48,0 КГц
Битовая глубина : 16 бит
Метод сжатия : С потерями
Размер потока : 291 Мбайт (16%)
Выравнивание : Разделение по промежуткам
Продолжительность промежутка : 42 мс. (1,00 видеокадр)
Время предзагрузки промежутка : 500 мс.

Аудио #2
Идентификатор : 2
Формат : AC-3
Формат/Информация : Audio Coding 3
Расширение режима : CM (complete main)
Параметр Endianness формата : Big
Идентификатор кодека : 2000
Продолжительность : 1 ч. 30 м.
Вид битрейта : Постоянный
Битрейт : 448 Кбит/сек
Каналы : 6 каналов
Original Channel count : 5 каналов
Расположение каналов : Front: L C R, Side: L R
Частота : 48,0 КГц
Битовая глубина : 16 бит
Метод сжатия : С потерями
Размер потока : 291 Мбайт (16%)
Выравнивание : Разделение по промежуткам
Продолжительность промежутка : 42 мс. (1,00 видеокадр)
Время предзагрузки промежутка : 500 мс.





   Похожие торренты   Торрент   Размер 
В этой теме нет новых непрочитанных сообщений. Со склонов Кокурико / Kokuriko-zaka kara (2011) BDRip 1080p by msltel | D, P, A

547 | 3

9.88 ГБ

В этой теме нет новых непрочитанных сообщений. Со склонов Кокурико / Kokuriko-zaka kara (2011) BDRip 720p by msltel | D, P, A

16 | 5

3.84 ГБ

В этой теме нет новых непрочитанных сообщений. Со склонов Кокурико / Kokuriko-zaka kara (2011) BDRip 1080p

2 | 4

12.49 ГБ

В этой теме нет новых непрочитанных сообщений. Со склонов Кокурико / Kokuriko-zaka kara (2011) BDRip 1080p

15 | 1

2.19 ГБ

В этой теме нет новых непрочитанных сообщений. Со склонов Кокурико / Kokuriko-zaka kara (2011) BDRip от HQ-ViDEO | D, P

423 | 18

1.46 ГБ

В этой теме нет новых непрочитанных сообщений. Со склонов Кокурико / From Up on Poppy Hill / Kokuriko-zaka kara (2011) BDRip от HQ-ViDEO | D, P

28 | 11

1.46 ГБ

В этой теме нет новых непрочитанных сообщений. Со склонов Кокурико / Kokuriko-zaka kara (2011) DVD9 R5 от New-Team | D | лицензия

2 | 4

7.87 ГБ




Вы не можете начинать темы
Вы не можете отвечать на сообщения
Вы не можете редактировать свои сообщения
Вы не можете удалять свои сообщения
Вы не можете добавлять вложения

Перейти:  
Для Мосгорсуда, Роскомнадзора и рекламодателей: mosgorsud-torrent[собачка]yandex.ru
 Вход
ppkBB3cker v.2 © 2008-2014 @ PPK
[ Time : 1.033s | 16 Queries | GZIP : Off ]

Торрент трекер RUTOR.IN, Не можете зайти на rutor.org? Какой новый адрес рутор? Какое зеркало рутор? Не работает rutor.org и зеркала? Тогда наш торрент специально для вас. Rutor.in неофициальное зеркало rutor. В случае если у Вас заблокирован rutor или вдруг Вы не можете на него зайти, то Вы без труда сможете скачать бесплатно и без рекламы последние новинки кино, игр, сериалов и прочего у нас, на Rutor.in. Не нужно использовать прокси, чтобы зайти на рутор, достаточно воспользоваться нашим ресурсом. Все новые фильмы, игры, сериалы, книги и музыка за 2013 и 2014 годы через торрент бесплатно. Скачивайте фильмы в хорошем качестве, игры для пк, xbox, playstation без регистрации. У нас вы найдете новые Зарубежные сериалы и Русские сериалы 2013, 2014, 2015 годов. Оставайтесь с нами, качайте любимые фильмы, игры, сериалы, книги и музыку.
cron