img image001 image001 image001 image001 image001 image001 image001 image001 image001 image001 image001 image001 image001 image001 image001

Planets Sun Sun Sun
Статистика раздачи
Автор: PriZraK | Размер: 3.84 ГБ | Добавлен: 15 фев 2014
Раздают: 16    Качают: 5
Скачать торрент
Скачать торрент
Описание торрента

СообщениеДобавлено: 15 фев 2014 

Название: Со склонов Кокурико
Оригинальное название: Kokuriko-zaka kara
Год выпуска: 2011
Жанр: Аниме, мультфильм, драма
Выпущено: Япония, Studio Ghibli
Режиссер: Горо Миядзаки
В ролях: Масами Нагасава, Дзюнъити Окада, Кэйко Такэсита, Юрико Исида, Дзюн Фубуки, Такаси Найто, Сюнсукэ Кадзама, Нао Омори, Тэруюки Кагава

О фильме: Действие разворачивается в 1963 году близ Иокогамы. У героини, Уми Комацудзаки, отец, командир корабля, погибает во время Корейской войны 10 лет назад, когда она была ещё маленькой девочкой. В то время как её мать находится в отъезде, девочке приходится принять хозяйство на себя, в частности, не забывать каждое утро поднимать флажки — такое правило поставил отец, чтобы видеть с моря, что его ожидают дома. В городке имеется школьный клуб, с разнообразными секциями по интересам. Проблема этого клуба в том, что его хотят закрыть, тем более, что здание, в котором он базируется, уже обветшало. И вот Уми, вместе с другими школьными активистами должна ехать в Токио к спонсору школы, чтобы спасти дом от разрушения. На фоне общественной деятельности просыпается первая любовь.

Качество: BDRip 720p
Видео: MPEG-4 AVC, 4249 Кбит/с, 1280x690
Аудио: Русский, японский (AC3, 5 ch, 448 Кбит/с)
Размер: 3.84 ГБ
Продолжительность: 01:30:52
Перевод: Дублированный, профессиональный многоголосый, авторский (Андрей Гаврилов)
Субтитры: Русские, английские

Исходник: delo2006 (HDTracker)

Сравнение с исходником



Общее
Уникальный идентификатор : 220164777979707670307790447679530595690 (0xA5A231A0E0AFEDF7B5839E9B7E9FF56A)
Полное имя : E:VideoSo.sklonov.Kokuriko.2011.x264.BDRip.720p.mkv
Формат : Matroska
Версия формата : Version 4 / Version 2
Размер файла : 3,84 Гбайт
Продолжительность : 1 ч. 30 м.
Общий поток : 6044 Кбит/сек
Название фильма : Со склонов Кокурико / Kokuriko-zaka kara / 2011 / BDRip -- STarankov
Дата кодирования : UTC 2013-12-20 07:06:49
Программа кодирования : mkvmerge v6.6.0 ('The Edge Of The In Between') built on Dec 1 2013 17:55:00
Библиотека кодирования : libebml v1.3.0 + libmatroska v1.4.1

Видео
Идентификатор : 1
Формат : AVC
Формат/Информация : Advanced Video Codec
Профиль формата : High@L4.1
Параметр CABAC формата : Да
Параметр ReFrames формата : 9 кадров
Идентификатор кодека : V_MPEG4/ISO/AVC
Продолжительность : 1 ч. 30 м.
Битрейт : 4249 Кбит/сек
Ширина : 1280 пикселей
Высота : 690 пикселей
Соотношение сторон : 1,85:1
Режим частоты кадров : Постоянный
Частота кадров : 23,976 кадра/сек
Цветовое пространство : YUV
Субдискретизация насыщенности : 4:2:0
Битовая глубина : 8 бит
Тип развёртки : Прогрессивная
Бит/(Пиксели*Кадры) : 0.201
Размер потока : 2,62 Гбайт (68%)
Библиотека кодирования : x264 core 138 r2358 9e941d1
Настройки программы : cabac=1 / ref=9 / deblock=1:1:1 / analyse=0x3:0x113 / me=umh / subme=10 / psy=1 / psy_rd=0.40:0.00 / mixed_ref=1 / me_range=24 / chroma_me=1 / trellis=2 / 8x8dct=1 / cqm=0 / deadzone=21,11 / fast_pskip=0 / chroma_qp_offset=-2 / threads=6 / lookahead_threads=1 / sliced_threads=0 / nr=0 / decimate=0 / interlaced=0 / bluray_compat=0 / constrained_intra=0 / bframes=8 / b_pyramid=2 / b_adapt=2 / b_bias=0 / direct=3 / weightb=1 / open_gop=0 / weightp=2 / keyint=230 / keyint_min=23 / scenecut=40 / intra_refresh=0 / rc_lookahead=40 / rc=2pass / mbtree=1 / bitrate=4249 / ratetol=1.0 / qcomp=0.60 / qpmin=0 / qpmax=69 / qpstep=4 / cplxblur=20.0 / qblur=0.5 / vbv_maxrate=50000 / vbv_bufsize=62500 / nal_hrd=none / ip_ratio=1.40 / aq=1:0.60
Язык : Japanese
Default : Да
Forced : Нет

Аудио #1
Идентификатор : 2
Формат : AC-3
Формат/Информация : Audio Coding 3
Расширение режима : CM (complete main)
Параметр Endianness формата : Big
Идентификатор кодека : A_AC3
Продолжительность : 1 ч. 30 м.
Вид битрейта : Постоянный
Битрейт : 448 Кбит/сек
Каналы : 5 каналов
Расположение каналов : Front: L C R, Side: L R
Частота : 48,0 КГц
Битовая глубина : 16 бит
Метод сжатия : С потерями
Размер потока : 291 Мбайт (7%)
Заголовок : DUB
Язык : Russian
Default : Да
Forced : Нет

Аудио #2
Идентификатор : 3
Формат : AC-3
Формат/Информация : Audio Coding 3
Расширение режима : CM (complete main)
Параметр Endianness формата : Big
Идентификатор кодека : A_AC3
Продолжительность : 1 ч. 30 м.
Вид битрейта : Постоянный
Битрейт : 448 Кбит/сек
Каналы : 5 каналов
Расположение каналов : Front: L C R, Side: L R
Частота : 48,0 КГц
Битовая глубина : 16 бит
Метод сжатия : С потерями
Размер потока : 291 Мбайт (7%)
Заголовок : MVO
Язык : Russian
Default : Нет
Forced : Нет

Аудио #3
Идентификатор : 4
Формат : AC-3
Формат/Информация : Audio Coding 3
Расширение режима : CM (complete main)
Параметр Endianness формата : Big
Идентификатор кодека : A_AC3
Продолжительность : 1 ч. 30 м.
Вид битрейта : Постоянный
Битрейт : 448 Кбит/сек
Каналы : 5 каналов
Расположение каналов : Front: L C R, Side: L R
Частота : 48,0 КГц
Битовая глубина : 16 бит
Метод сжатия : С потерями
Размер потока : 291 Мбайт (7%)
Заголовок : AVO (Андрей Гаврилов)
Язык : Russian
Default : Нет
Forced : Нет

Аудио #4
Идентификатор : 5
Формат : AC-3
Формат/Информация : Audio Coding 3
Расширение режима : CM (complete main)
Параметр Endianness формата : Big
Идентификатор кодека : A_AC3
Продолжительность : 1 ч. 30 м.
Вид битрейта : Постоянный
Битрейт : 448 Кбит/сек
Каналы : 5 каналов
Расположение каналов : Front: L C R, Side: L R
Частота : 48,0 КГц
Битовая глубина : 16 бит
Метод сжатия : С потерями
Размер потока : 291 Мбайт (7%)
Заголовок : original
Язык : Japanese
Default : Нет
Forced : Нет

Текст #1
Идентификатор : 6
Формат : UTF-8
Идентификатор кодека : S_TEXT/UTF8
Идентификатор кодека/Информация : UTF-8 Plain Text
Заголовок : русский
Язык : Russian
Default : Нет
Forced : Нет

Текст #2
Идентификатор : 7
Формат : UTF-8
Идентификатор кодека : S_TEXT/UTF8
Идентификатор кодека/Информация : UTF-8 Plain Text
Заголовок : английский
Default : Нет
Forced : Нет

---[Information] [20.12.2013 6:25:22] avs [info]: 1280x690p 1:1 @ 24000/1001 fps (cfr)
---[Information] [20.12.2013 6:25:22] x264 [info]: using SAR=1/1
---[Information] [20.12.2013 6:25:22] x264 [info]: using cpu capabilities: MMX2 SSE2Fast SSSE3 SSE4.2
---[Information] [20.12.2013 6:25:22] x264 [info]: profile High, level 4.1
---[Information] [20.12.2013 12:25:05] x264 [info]: frame I:1179 Avg QP: 9.52 size:267632
---[Information] [20.12.2013 12:25:05] x264 [info]: frame P:28122 Avg QP:13.32 size: 64960
---[Information] [20.12.2013 12:25:05] x264 [info]: frame B:101399 Avg QP:18.53 size: 7437
---[Information] [20.12.2013 12:25:05] x264 [info]: consecutive B-frames: 2.5% 3.7% 5.1% 22.7% 15.9% 25.9% 11.4% 10.0% 2.9%
---[Information] [20.12.2013 12:25:05] x264 [info]: mb I I16..4: 7.1% 39.8% 53.1%
---[Information] [20.12.2013 12:25:05] x264 [info]: mb P I16..4: 0.5% 4.6% 2.0% P16..4: 38.7% 24.4% 23.5% 0.0% 0.0% skip: 6.3%
---[Information] [20.12.2013 12:25:05] x264 [info]: mb B I16..4: 0.1% 0.6% 0.1% B16..8: 32.4% 7.4% 2.2% direct: 2.5% skip:54.7% L0:52.3% L1:37.5% BI:10.2%
---[Information] [20.12.2013 12:25:05] x264 [info]: 8x8 transform intra:59.6% inter:28.0%
---[Information] [20.12.2013 12:25:05] x264 [info]: direct mvs spatial:98.6% temporal:1.4%
---[Information] [20.12.2013 12:25:05] x264 [info]: coded y,uvDC,uvAC intra: 90.3% 62.1% 52.4% inter: 17.1% 10.4% 9.0%
---[Information] [20.12.2013 12:25:05] x264 [info]: i16 v,h,dc,p: 26% 10% 39% 26%
---[Information] [20.12.2013 12:25:05] x264 [info]: i8 v,h,dc,ddl,ddr,vr,hd,vl,hu: 14% 11% 28% 7% 8% 7% 8% 8% 11%
---[Information] [20.12.2013 12:25:05] x264 [info]: i4 v,h,dc,ddl,ddr,vr,hd,vl,hu: 26% 13% 9% 8% 9% 9% 8% 8% 10%
---[Information] [20.12.2013 12:25:05] x264 [info]: i8c dc,h,v,p: 44% 29% 21% 7%
---[Information] [20.12.2013 12:25:05] x264 [info]: Weighted P-Frames: Y:1.6% UV:1.1%
---[Information] [20.12.2013 12:25:05] x264 [info]: ref P L0: 44.3% 2.9% 15.6% 9.5% 7.2% 6.8% 5.5% 4.2% 3.7% 0.5% 0.0%
---[Information] [20.12.2013 12:25:05] x264 [info]: ref B L0: 57.8% 13.6% 9.5% 5.8% 5.1% 4.3% 2.7% 1.2%
---[Information] [20.12.2013 12:25:05] x264 [info]: ref B L1: 89.1% 10.9%
---[Information] [20.12.2013 12:25:05] x264 [info]: kb/s:4250.71
---[Information] [20.12.2013 12:25:05] encoded 130700 frames, 6.06 fps, 4250.72 kb/s
--[Information] [20.12.2013 12:25:06] Final statistics
---[Information] [20.12.2013 12:25:06] Video Bitrate Desired: 4249 kbit/s
---[Information] [20.12.2013 12:25:06] Video Bitrate Obtained (approximate): 4252 kbit/s
--[Information] [20.12.2013 12:25:06] MediaInfo
---[Information] File: E:RipSo.sklonov.Kokuriko.2011.x264.BDRipSo.sklonov.Kokuriko.2011.x264.BDRip.720p.mkv





   Похожие торренты   Торрент   Размер 
В этой теме нет новых непрочитанных сообщений. Со склонов Кокурико / Kokuriko-zaka kara (2011) BDRip by msltel | D, P, A

11 | 14

2.35 ГБ

В этой теме нет новых непрочитанных сообщений. Со склонов Кокурико / Kokuriko-zaka kara (2011) BDRip 1080p by msltel | D, P, A

547 | 3

9.88 ГБ

В этой теме нет новых непрочитанных сообщений. Со склонов Кокурико / Kokuriko-zaka kara (2011) BDRip 1080p

15 | 1

2.19 ГБ

В этой теме нет новых непрочитанных сообщений. Со склонов Кокурико / Kokuriko-zaka kara (2011) BDRip 1080p

2 | 3

12.49 ГБ

В этой теме нет новых непрочитанных сообщений. Со склонов Кокурико / Kokuriko-zaka kara (2011) BDRip от HQ-ViDEO | D, P

404 | 24

1.46 ГБ

В этой теме нет новых непрочитанных сообщений. Со склонов Кокурико / From Up on Poppy Hill / Kokuriko-zaka kara (2011) BDRip от HQ-ViDEO | D, P

37 | 14

1.46 ГБ

В этой теме нет новых непрочитанных сообщений. Со склонов Кокурико / Kokuriko-zaka kara (2011) DVD9 R5 от New-Team | D | лицензия

2 | 4

7.87 ГБ




Вы не можете начинать темы
Вы не можете отвечать на сообщения
Вы не можете редактировать свои сообщения
Вы не можете удалять свои сообщения
Вы не можете добавлять вложения

Перейти:  
Для Мосгорсуда, Роскомнадзора и рекламодателей: mosgorsud-torrent[собачка]yandex.ru
 Вход
ppkBB3cker v.2 © 2008-2014 @ PPK
[ Time : 0.064s | 15 Queries | GZIP : Off ]

Торрент трекер RUTOR.IN, Не можете зайти на rutor.org? Какой новый адрес рутор? Какое зеркало рутор? Не работает rutor.org и зеркала? Тогда наш торрент специально для вас. Rutor.in неофициальное зеркало rutor. В случае если у Вас заблокирован rutor или вдруг Вы не можете на него зайти, то Вы без труда сможете скачать бесплатно и без рекламы последние новинки кино, игр, сериалов и прочего у нас, на Rutor.in. Не нужно использовать прокси, чтобы зайти на рутор, достаточно воспользоваться нашим ресурсом. Все новые фильмы, игры, сериалы, книги и музыка за 2013 и 2014 годы через торрент бесплатно. Скачивайте фильмы в хорошем качестве, игры для пк, xbox, playstation без регистрации. У нас вы найдете новые Зарубежные сериалы и Русские сериалы 2013, 2014, 2015 годов. Оставайтесь с нами, качайте любимые фильмы, игры, сериалы, книги и музыку.