img image001 image001 image001 image001 image001 image001 image001 image001 image001 image001 image001 image001 image001 image001 image001

Planets Sun Sun Sun
Статистика раздачи
Автор: PriZraK | Размер: 15.75 ГБ | Добавлен: 15 фев 2014
Раздают: 100    Качают: 142
Скачать торрент
Скачать торрент
Описание торрента

СообщениеДобавлено: 15 фев 2014 


Страна: Япония
Год выпуска: 2008 г.
Жанр: комедия, романтика, фантастика, этти
Продолжительность: 26 эп, ~25 мин. серия
Режиссер: Като Такао

Студия:

Описание: История повествует о старшекласснике Рито Юуки, скромном мальчике, который никак не может найти в себе силы признаться в любви девушке своей мечты, Харуне Сайренджи. Однажды придя домой, он обнаруживает в ванной загадочную обнаженную девушку, появившуюся из ниоткуда. Ее имя - Лала, и она с планеты Дэвилюк, где является наследницей трона. Ее отец хочет вернуть принцессу домой и насильно заставить выйти замуж за выгодного жениха. Однако, Лала решает остаться на Земле и выйти замуж за Рито...

Качество: BDRip
Тип релиза: Без хардсаба
Формат видео: MP4
Релиз/Автор рипа: [encoded by SEED]
Совместимость с бытовыми плеерами: Да
Кодек: h.264 - 8bit
Видео: 1280x720, ~1400 Кбит/сек, 23,976 кадра/сек
Аудио: AC3, 192 Кбит/сек, 48 КГц, 2CH Язык Русский (в составе контейнера) ; Озвучка: Cuba77
Общее
Полное имя : G:Anime HDTo Love-Ru Trouble - Любовные Неприятности2008 - 1 сезон - Любовь и прочие неприятностиTo Love-Ru Trouble - 01.mp4
Формат : MPEG-4
Профиль формата : Base Media
Идентификатор кодека : isom
Размер файла : 279 Мбайт
Продолжительность : 24 м.
Общий поток : 1613 Кбит/сек
Дата кодирования : UTC 2013-12-14 14:56:31
Дата пометки : UTC 2013-12-14 14:56:31
Программа кодирования : MkvToMp4 [www.mkvtomp4.ru] version 0.224 (x64)

Видео
Идентификатор : 1
Формат : AVC
Формат/Информация : Advanced Video Codec
Профиль формата : High@L4.0
Параметр CABAC формата : Да
Параметр ReFrames формата : 6 кадров
Идентификатор кодека : avc1
Идентификатор кодека/Информация : Advanced Video Coding
Продолжительность : 24 м.
Битрейт : 1419 Кбит/сек
Максимальный битрейт : 8411 Кбит/сек
Ширина : 1280 пикселей
Высота : 720 пикселей
Соотношение сторон : 16:9
Режим частоты кадров : Постоянный
Частота кадров : 23,976 кадра/сек
Цветовое пространство : YUV
Субдискретизация насыщенности : 4:2:0
Битовая глубина : 8 бит
Тип развёртки : Прогрессивная
Бит/(Пиксели*Кадры) : 0.064
Размер потока : 245 Мбайт (88%)
Заголовок : Video
Язык : English
Дата кодирования : UTC 2013-12-14 14:56:31
Дата пометки : UTC 2013-12-14 14:56:38

Аудио
Идентификатор : 2
Формат : AC-3
Формат/Информация : Audio Coding 3
Расширение режима : CM (complete main)
Параметр Endianness формата : Big
Идентификатор кодека : ac-3
Продолжительность : 24 м.
Вид битрейта : Постоянный
Битрейт : 192 Кбит/сек
Каналы : 2 канала
Расположение каналов : Front: L R
Частота : 48,0 КГц
Битовая глубина : 16 бит
Метод сжатия : С потерями
Размер потока : 33,2 Мбайт (12%)
Язык : English
Дата кодирования : UTC 2013-12-14 14:56:36
Дата пометки : UTC 2013-12-14 14:56:38
01. The Girl Who Descended
02. Engagement Cancellation!?
03. Love Triangle
04. Love Apron of the Universe
05. The Queen's Written Challenge
06. The Alien Assassin
07. This Is How It Should Be For Every Man!
08. Upright and Clean-Handed Public Morals Comittee Member
09. Including Love from a Star
10. The Female Performer From Space
11. Golden Darkness
12. Hair-Rising Sports Festival
13. The Number One Man in the Universe
14. Secret of the Two
15. Princess of the Jungle
16. Run's Assaulting Confession Time
17. Ghost of the Old School Building
18. Saruyama the Souvenir
19. Hell's Hot Springs! Female Space Aliens' Seven-colored Fall
20. Explosive Heat Girl
21. Record of Yuuki Pavilion's Bloody Wind
22. Tremble With Fear! Culture Festival
23. Saruyama's Harem Legend
24. When I'm Shy
25. The Earth's Last Night
26. Lala




Страна: Япония
Год выпуска: 2009 г.
Жанр: комедия, романтика, фантастика, этти
Продолжительность: 6 эп, ~25 мин. серия
Режиссер: Като Такао

Студия:

Описание: Продолжение о несносной красавице с другой планеты Лалы и земного такого парнишы Рито...

Качество: BDRip
Тип релиза: Без хардсаба
Формат видео: MP4
Релиз/Автор рипа: [encoded by SEED]
Совместимость с бытовыми плеерами: Да
Кодек: h.264 - 8bit
Видео: 1280x720, ~1200 Кбит/сек, 23,976 кадра/сек
Аудио: AC3, 192 Кбит/сек, 48 КГц, 2CH Язык Русский (в составе контейнера) ; Озвучка: Cuba77
Общее
Полное имя : G:Anime HDTo Love-Ru Trouble - Любовные Неприятности2009 - OVA 1To Love-Ru Trouble - OVA_01.mp4
Формат : MPEG-4
Профиль формата : Base Media
Идентификатор кодека : isom
Размер файла : 251 Мбайт
Продолжительность : 25 м.
Общий поток : 1400 Кбит/сек
Дата кодирования : UTC 2013-12-14 16:26:27
Дата пометки : UTC 2013-12-14 16:26:27
Программа кодирования : MkvToMp4 [www.mkvtomp4.ru] version 0.224 (x64)

Видео
Идентификатор : 1
Формат : AVC
Формат/Информация : Advanced Video Codec
Профиль формата : High@L4.0
Параметр CABAC формата : Да
Параметр ReFrames формата : 6 кадров
Идентификатор кодека : avc1
Идентификатор кодека/Информация : Advanced Video Coding
Продолжительность : 24 м.
Битрейт : 1211 Кбит/сек
Максимальный битрейт : 7896 Кбит/сек
Ширина : 1280 пикселей
Высота : 720 пикселей
Соотношение сторон : 16:9
Режим частоты кадров : Постоянный
Частота кадров : 23,976 кадра/сек
Цветовое пространство : YUV
Субдискретизация насыщенности : 4:2:0
Битовая глубина : 8 бит
Тип развёртки : Прогрессивная
Бит/(Пиксели*Кадры) : 0.055
Размер потока : 216 Мбайт (86%)
Заголовок : Video
Язык : English
Дата кодирования : UTC 2013-12-14 16:26:27
Дата пометки : UTC 2013-12-14 16:26:35

Аудио
Идентификатор : 2
Формат : AC-3
Формат/Информация : Audio Coding 3
Расширение режима : CM (complete main)
Параметр Endianness формата : Big
Идентификатор кодека : ac-3
Продолжительность : 25 м.
Вид битрейта : Постоянный
Битрейт : 192 Кбит/сек
Каналы : 2 канала
Расположение каналов : Front: L R
Частота : 48,0 КГц
Битовая глубина : 16 бит
Метод сжатия : С потерями
Размер потока : 34,4 Мбайт (14%)
Язык : English
Дата кодирования : UTC 2013-12-14 16:26:33
Дата пометки : UTC 2013-12-14 16:26:35
1. Rito, Becomes a Woman
03.04.2009, 25 мин.
2. Rito and Mikan
04.06.2009, 25 мин.
3. Welcome to the Resort!!
04.08.2009, 25 мин.
4. Trouble Quest
04.11.2009, 25 мин.
5. Nana and Momo
04.02.2010, 25 мин.
6. Metamorphose / Draft / Hand & Tail
02.04.2010, 25 мин.





Страна: Япония
Год выпуска: 2010 г.
Жанр: комедия, романтика, фантастика, этти
Продолжительность: 12 эп, ~25 мин. серия
Режиссер: Оцуки Ацуси

Студия:

Описание:
На Земле минул год с начала неофициального дружественного визита принцессы Лалы Саталин Девилюк. Дочь повелителя всея Галактики покинула родной дом, чтобы избежать назойливых ухажеров, и в первый же день на новой планете встретила истинную любовь в лице Рито Юки, конечно же, простого японского школьника. Правда, некоторые источники утверждают, что во всем виновато недоразумение, но ведь женское чутье в подобных вопросах не ошибается, сословные и культурные барьеры ему не страшны! И пускай сам Рито честно признался, что его сердце уже отдано однокласснице и давней подруге Харуне Сайрэндзи. Что ни говори, Лала имеет куда более качественное и обширное образование, один из постулатов которого гласит: принцессы всегда получают то, чего хотят!

Время шло, проблемы возникали и решались, Земля стала популярным в Галактике местом отдыха, а в доме семьи Юки возникла целая инопланетная колония: Лала, ее сестры Нана и Момо, робот Пеке и разумный цветок Селина. Сюда же можно добавить симпатичную охотницу Ями, прибывшую за головой главного героя, да так и оставшуюся в… э-э… научных целях. Видя подобное внимание, выводы сделали и ученицы школы Сайнан, куда перевелись почти все «высокие гости». Постепенно Рито понял, что, выходя на межпланетный уровень, надо расширять мировоззрение, то есть пробовать себя в нелегкой роли гарем-мастера. Семья Масаки уже давно доказала – галактическому принцу по-другому нельзя!

© Hollow, World Art

Качество: BDRip
Тип релиза: Без хардсаба
Формат видео: MP4
Релиз/Автор рипа: [encoded by SEED]
Совместимость с бытовыми плеерами: Да
Кодек: h.264 - 8bit
Видео: 1280x720, ~1200 Кбит/сек, 23,976 кадра/сек
Аудио: AC3, 192 Кбит/сек, 48 КГц, 2CH Язык Русский (в составе контейнера) ; Озвучка: Cuba77
Общее
Полное имя : G:Anime HDTo Love-Ru Trouble - Любовные Неприятности2010 - 2 сезон - Любовь и еще больше неприятностейMotto To Love-Ru Trouble - 01.mp4
Формат : MPEG-4
Профиль формата : Base Media
Идентификатор кодека : isom
Размер файла : 251 Мбайт
Продолжительность : 23 м.
Общий поток : 1481 Кбит/сек
Дата кодирования : UTC 2013-12-14 16:51:17
Дата пометки : UTC 2013-12-14 16:51:17
Программа кодирования : MkvToMp4 [www.mkvtomp4.ru] version 0.224 (x64)

Видео
Идентификатор : 1
Формат : AVC
Формат/Информация : Advanced Video Codec
Профиль формата : High@L4.0
Параметр CABAC формата : Да
Параметр ReFrames формата : 6 кадров
Идентификатор кодека : avc1
Идентификатор кодека/Информация : Advanced Video Coding
Продолжительность : 23 м.
Битрейт : 1287 Кбит/сек
Максимальный битрейт : 9238 Кбит/сек
Ширина : 1280 пикселей
Высота : 720 пикселей
Соотношение сторон : 16:9
Режим частоты кадров : Постоянный
Частота кадров : 23,976 кадра/сек
Цветовое пространство : YUV
Субдискретизация насыщенности : 4:2:0
Битовая глубина : 8 бит
Тип развёртки : Прогрессивная
Бит/(Пиксели*Кадры) : 0.058
Размер потока : 218 Мбайт (87%)
Заголовок : Video
Язык : English
Дата кодирования : UTC 2013-12-14 16:51:17
Дата пометки : UTC 2013-12-14 16:51:22

Аудио
Идентификатор : 2
Формат : AC-3
Формат/Информация : Audio Coding 3
Расширение режима : CM (complete main)
Параметр Endianness формата : Big
Идентификатор кодека : ac-3
Продолжительность : 23 м.
Вид битрейта : Постоянный
Битрейт : 192 Кбит/сек
Каналы : 2 канала
Расположение каналов : Front: L R
Частота : 48,0 КГц
Битовая глубина : 16 бит
Метод сжатия : С потерями
Размер потока : 32,6 Мбайт (13%)
Язык : English
Дата кодирования : UTC 2013-12-14 16:51:21
Дата пометки : UTC 2013-12-14 16:51:22
01. Once Again from the Beginning / War in the Bathhouse / The Sound of Ticking Love
02. Those Warped into Darkness / Welcome to the Yuuki Household! / Slumber Party
03. Special Love Potion / Through the Looking Glass / You are the Lovely Cinderella
04. Yami Yami Fashion / Wonderful Love / The Twins` Escape
05. Queen of Love !? / Oh! Lets`s Play / The Flavour of Chocolate is a Sweet Sensation
06. Beach Girls / Late Night Tutor / Master of Love
07. Yami`s Clinic / The Antagonist / A Strange Haruna
08. Become Bigger / Wonderful Life / The Trance of Feelings
09. For Whom the Bell Tolls / The Troubling Rampage / Loving Idol
10. Pollen Telepathy / A Girl`s Feelings / Heart-throbbing Email
11. All Quiet On The Sister Front / False Love? / Predicting Love
12. I Love You 1 / I Love You 2 / I Love You 3





Страна: Япония
Год выпуска: 2012 г.
Жанр: комедия, романтика, фантастика, этти
Продолжительность: 12 эп, ~25 мин. серия
Режиссер: Оцуки Ацуси

Студия:

Описание:Дом простого японского школьника Рито Юки давно превратился в форпост межзвездной империи, а сам хозяин пребывает в тяжких раздумьях. Как сделать выбор между подругой детства Харуной и принцессой Лалой, когда тебя одновременно домогается чуть ли не половина окружающего женского населения? Юная принцесса Момо, прирожденная интриганка, прибывшая на помощь старшей сестре, предлагает незадачливому Юки открыто признать себя галактическим принцем, которому гарем положен по определению. Тогда все заинтересованные дамы быстро разберутся между собой, а Рито обретет долгую, хотя вряд ли спокойную жизнь!

Именно так, ведь в число избранных неизбежно войдет милая блондинка Ями, нанятая отвергнутыми женихами Лалы «разобраться» с каким-то ничтожным землянином. По понятным причинам знаменитая убийца не торопится выполнять заказ, хотя один раз уже пыталась накормить беднягу Рито обедом. Вот только пославший ее синдикат «Тьма» не устраивает потеря лица, и для исправления ситуации его хозяйка намерена принять самые решительные меры, вплоть до личного вмешательства. Наивная женщина! Ведь всем известно, что настоящего гаремного лидера не то что пушкой – Большим Взрывом не возьмешь!

© Hollow, World Art

Качество: BDRip
Тип релиза: Без хардсаба
Формат видео: MP4
Релиз/Автор рипа: [encoded by SEED]
Совместимость с бытовыми плеерами: Да
Кодек: h.264 - 8bit
Видео: 1280x720, ~1200 Кбит/сек, 23,976 кадра/сек
Аудио: AC3, 192 Кбит/сек, 48 КГц, 2CH Язык Русский (в составе контейнера) ; Озвучка: Cuba77
Общее
Полное имя : G:Anime HDTo Love-Ru Trouble - Любовные Неприятности2012 - 3 сезон - Любовь и Тьма неприятностейTo Love-Ru Trouble Darkness - 01.mp4
Формат : MPEG-4
Профиль формата : Base Media
Идентификатор кодека : isom
Размер файла : 232 Мбайт
Продолжительность : 23 м.
Общий поток : 1369 Кбит/сек
Дата кодирования : UTC 2013-12-14 17:22:55
Дата пометки : UTC 2013-12-14 17:22:55
Программа кодирования : MkvToMp4 [www.mkvtomp4.ru] version 0.224 (x64)
Видео
Идентификатор : 1
Формат : AVC
Формат/Информация : Advanced Video Codec
Профиль формата : High@L4.0
Параметр CABAC формата : Да
Параметр ReFrames формата : 6 кадров
Идентификатор кодека : avc1
Идентификатор кодека/Информация : Advanced Video Coding
Продолжительность : 23 м.
Битрейт : 1187 Кбит/сек
Максимальный битрейт : 11,0 Мбит/сек
Ширина : 1280 пикселей
Высота : 720 пикселей
Соотношение сторон : 16:9
Режим частоты кадров : Постоянный
Частота кадров : 23,976 кадра/сек
Цветовое пространство : YUV
Субдискретизация насыщенности : 4:2:0
Битовая глубина : 8 бит
Тип развёртки : Прогрессивная
Бит/(Пиксели*Кадры) : 0.054
Размер потока : 201 Мбайт (87%)
Заголовок : Video
Язык : English
Дата кодирования : UTC 2013-12-14 17:22:55
Дата пометки : UTC 2013-12-14 17:23:19
Аудио
Идентификатор : 2
Формат : AC-3
Формат/Информация : Audio Coding 3
Расширение режима : CM (complete main)
Параметр Endianness формата : Big
Идентификатор кодека : ac-3
Продолжительность : 22 м.
Вид битрейта : Постоянный
Битрейт : 192 Кбит/сек
Каналы : 2 канала
Расположение каналов : Front: L R
Частота : 48,0 КГц
Битовая глубина : 16 бит
Метод сжатия : С потерями
Размер потока : 30,4 Мбайт (13%)
Язык : English
Дата кодирования : UTC 2013-12-14 17:22:59
Дата пометки : UTC 2013-12-14 17:23:19
1. Continue
06.10.2012, 25 мин.
2. Doubt and Dish
13.10.2012, 25 мин.
3. Each Speculation
20.10.2012, 25 мин.
4. True Smile: The Past, Friends and a Smile
27.10.2012, 25 мин.
5. A Man? Woman? Changes
03.11.2012, 25 мин.
6. Metamorphose: A Time of Change
10.11.2012, 25 мин.
7. Sisters
17.11.2012, 25 мин.
8. Bad Mood
01.12.2012, 25 мин.
9. True Self
08.12.2012, 25 мин.
10. Past
15.12.2012, 25 мин.
11. The Right Thing
22.12.2012, 25 мин.
12. Room
29.12.2012, 25 мин.





Страна: Япония
Год выпуска: 2012 г.
Жанр: комедия, романтика, фантастика, этти
Продолжительность: 4 эп, ~25 мин. серия
Режиссер: Оцуки Ацуси

Студия:

Описание: Бонус к эксклюзивным ограниченным изданиям пятого, шестого, восьмого и девятого томов одноимённой манги.

Качество: BDRip
Тип релиза: Без хардсаба
Формат видео: AVI
Релиз/Автор рипа: [Краш]
Совместимость с бытовыми плеерами: НЕТ
Кодек: XVID MPEG-4 Visual
Видео: 720x400 : 23,976 кадра/сек : ~1600 Кбит/сек
Аудио: AC3; 48.0 kHz; 2.0ch; 192 kbps Язык Русский ;Озвучка: Cuba77
Общее
Полное имя : D:To LOVE Ru Trouble Darkness OADTo LOVE Ru Trouble Darkness OAD 01.avi
Формат : AVI
Формат/Информация : Audio Video Interleave
Размер файла : 385 Мбайт
Продолжительность : 25 м.
Общий поток : 2106 Кбит/сек
Программа кодирования : VirtualDubMod 1.5.10.3 | www.virtualdub-fr.org || (build 2550/release)
Библиотека кодирования : VirtualDubMod build 2550/release
Видео
Идентификатор : 0
Формат : MPEG-4 Visual
Профиль формата : Advanced Simple@L5
Параметр BVOP формата : 3
Параметр QPel формата : Да
Параметр GMC формата : 3 точки перехода
Параметр матрицы формата : Default (H.263)
Идентификатор кодека : XVID
Идентификатор кодека/Подсказка : XviD
Продолжительность : 25 м.
Битрейт : 1905 Кбит/сек
Ширина : 720 пикселей
Высота : 400 пикселей
Соотношение сторон : 16:9
Частота кадров : 23,976 кадра/сек
Цветовое пространство : YUV
Субдискретизация насыщенности : 4:2:0
Битовая глубина : 8 бит
Тип развёртки : Прогрессивная
Метод сжатия : С потерями
Бит/(Пиксели*Кадры) : 0.276
Размер потока : 348 Мбайт (90%)
Библиотека кодирования : XviD 1.2.1 (UTC 2008-12-04)
Аудио
Идентификатор : 1
Формат : AC-3
Формат/Информация : Audio Coding 3
Расширение режима : CM (complete main)
Параметр Endianness формата : Big
Идентификатор кодека : 2000
Продолжительность : 25 м.
Вид битрейта : Постоянный
Битрейт : 192 Кбит/сек
Каналы : 2 канала
Расположение каналов : Front: L R
Частота : 48,0 КГц
Битовая глубина : 16 бит
Метод сжатия : С потерями
Размер потока : 35,1 Мбайт (9%)
Выравнивание : Разделение по промежуткам
Продолжительность промежутка : 42 мс. (1,00 видеокадр)
Время предзагрузки промежутка : 500 мс.


Семпл Обьязательно - смотреть полностью
Внимание - В данном релизе нету :
1 - Оригинальной дорожки (тоесть Японской)
2 - Отсуствуют русские субтитры
Просьба - ненужно задавать глупые вопросы по поводу дорожек и сабов, юзайте поиск там есть все ...
Над релизом работал CRASH (над сборкой файлов)в всех файлах кроме последней OVA сделана mp4 оптимизация - тоесть можно смело смотреть на всем что поддерживает данный формат.

Релиз от:



   Похожие торренты   Торрент   Размер 
В этой теме нет новых непрочитанных сообщений. Любовные неприятности / Motto To Love-Ru: Trouble [S03 + OVA] (2012) BDRip | AniDub [HWP]

46 | 29

4.41 ГБ

В этой теме нет новых непрочитанных сообщений. Любовные неприятности / To Love-Ru: Trouble [S01 + OVA] (2008-2010) HDTVRip | AniDub [HWP]

213 | 35

7.82 ГБ

В этой теме нет новых непрочитанных сообщений. Любовные неприятности / Motto To Love-Ru: Trouble - Darkness 2nd [S04] (2015) BDRip | AniDub [HWP]

17 | 13

3.33 ГБ

В этой теме нет новых непрочитанных сообщений. Любовные неприятности / Motto To Love-Ru: Trouble [S02] (2010) HDTVRip | AniDub [HWP]

83 | 14

2.86 ГБ

В этой теме нет новых непрочитанных сообщений. Любовь и прочие неприятности / Failure to Launch (2006) BDRip 720p от NNNB | D, P, P2, A

123 | 8

7.01 ГБ

В этой теме нет новых непрочитанных сообщений. Лидия Смирнова: Любовь и Прочие Неприятности (2015) HDTVRip 720p

111 | 37

1.47 ГБ

В этой теме нет новых непрочитанных сообщений. Я люблю неприятности / I Love Trouble (1994) BDRip 720p от FREEISLAND

0 | 2

4.38 ГБ




Вы не можете начинать темы
Вы не можете отвечать на сообщения
Вы не можете редактировать свои сообщения
Вы не можете удалять свои сообщения
Вы не можете добавлять вложения

Перейти:  
Для Мосгорсуда, Роскомнадзора и рекламодателей: mosgorsud-torrent[собачка]yandex.ru
 Вход
ppkBB3cker v.2 © 2008-2014 @ PPK
[ Time : 0.045s | 16 Queries | GZIP : Off ]

Торрент трекер RUTOR.IN, Не можете зайти на rutor.org? Какой новый адрес рутор? Какое зеркало рутор? Не работает rutor.org и зеркала? Тогда наш торрент специально для вас. Rutor.in неофициальное зеркало rutor. В случае если у Вас заблокирован rutor или вдруг Вы не можете на него зайти, то Вы без труда сможете скачать бесплатно и без рекламы последние новинки кино, игр, сериалов и прочего у нас, на Rutor.in. Не нужно использовать прокси, чтобы зайти на рутор, достаточно воспользоваться нашим ресурсом. Все новые фильмы, игры, сериалы, книги и музыка за 2013 и 2014 годы через торрент бесплатно. Скачивайте фильмы в хорошем качестве, игры для пк, xbox, playstation без регистрации. У нас вы найдете новые Зарубежные сериалы и Русские сериалы 2013, 2014, 2015 годов. Оставайтесь с нами, качайте любимые фильмы, игры, сериалы, книги и музыку.
cron