img image001 image001 image001 image001 image001 image001 image001 image001 image001 image001 image001 image001 image001 image001 image001

Planets Sun Sun Sun
Статистика раздачи
Автор: PriZraK | Размер: 9.88 ГБ | Добавлен: 16 фев 2014
Раздают: 547    Качают: 3
Скачать торрент
Скачать торрент
Описание торрента

СообщениеДобавлено: 16 фев 2014 

Название: Со склонов Кокурико
Оригинальное название: Kokuriko-zaka kara
Год выпуска: 2011
Жанр: Аниме, мультфильм, драма
Выпущено: Япония, Studio Ghibli
Режиссер: Горо Миядзаки
В ролях: Масами Нагасава, Дзюнъити Окада, Кэйко Такэсита, Юрико Исида, Дзюн Фубуки, Такаси Найто, Сюнсукэ Кадзама, Нао Омори, Тэруюки Кагава

О фильме: Действие разворачивается в 1963 году близ Иокогамы. У героини, Уми Комацудзаки, отец, командир корабля, погибает во время Корейской войны 10 лет назад, когда она была ещё маленькой девочкой. В то время как её мать находится в отъезде, девочке приходится принять хозяйство на себя, в частности, не забывать каждое утро поднимать флажки — такое правило поставил отец, чтобы видеть с моря, что его ожидают дома. В городке имеется школьный клуб, с разнообразными секциями по интересам. Проблема этого клуба в том, что его хотят закрыть, тем более, что здание, в котором он базируется, уже обветшало. И вот Уми, вместе с другими школьными активистами должна ехать в Токио к спонсору школы, чтобы спасти дом от разрушения. На фоне общественной деятельности просыпается первая любовь.

Качество: BDRip 1080p
Видео: MPEG-4 AVC, 9519 Кбит/с, 1920x1036
Аудио: Русский, японский (DTS, 5 ch, 1509 Кбит/с)
Размер: 9.88 ГБ
Продолжительность: 01:30:52
Перевод: Дублированный, профессиональный многоголосый, авторский (Андрей Гаврилов)
Субтитры: Русские, английские

Исходник: delo2006 (HDTracker)

Сравнение с исходником



Общее
Уникальный идентификатор : 215266082397693468738996942008578958187 (0xA1F2BD49FA5E9CA4A05D3AB232CB636B)
Полное имя : E:VideoSo.sklonov.Kokuriko.2011.x264.BDRip.1080p.mkv
Формат : Matroska
Версия формата : Version 4 / Version 2
Размер файла : 9,88 Гбайт
Продолжительность : 1 ч. 30 м.
Общий поток : 15,6 Мбит/сек
Название фильма : Со склонов Кокурико / Kokuriko-zaka kara / 2011 / BDRip -- STarankov
Дата кодирования : UTC 2013-12-21 07:42:34
Программа кодирования : mkvmerge v6.6.0 ('The Edge Of The In Between') built on Dec 1 2013 17:55:00
Библиотека кодирования : libebml v1.3.0 + libmatroska v1.4.1

Видео
Идентификатор : 1
Формат : AVC
Формат/Информация : Advanced Video Codec
Профиль формата : High@L4.1
Параметр CABAC формата : Да
Параметр ReFrames формата : 4 кадра
Идентификатор кодека : V_MPEG4/ISO/AVC
Продолжительность : 1 ч. 30 м.
Битрейт : 9519 Кбит/сек
Ширина : 1920 пикселей
Высота : 1036 пикселей
Соотношение сторон : 1,85:1
Режим частоты кадров : Постоянный
Частота кадров : 23,976 кадра/сек
Цветовое пространство : YUV
Субдискретизация насыщенности : 4:2:0
Битовая глубина : 8 бит
Тип развёртки : Прогрессивная
Бит/(Пиксели*Кадры) : 0.200
Размер потока : 5,85 Гбайт (59%)
Библиотека кодирования : x264 core 138 r2358 9e941d1
Настройки программы : cabac=1 / ref=4 / deblock=1:1:1 / analyse=0x3:0x113 / me=umh / subme=10 / psy=1 / psy_rd=0.40:0.00 / mixed_ref=1 / me_range=24 / chroma_me=1 / trellis=2 / 8x8dct=1 / cqm=0 / deadzone=21,11 / fast_pskip=0 / chroma_qp_offset=-2 / threads=6 / lookahead_threads=1 / sliced_threads=0 / nr=0 / decimate=0 / interlaced=0 / bluray_compat=0 / constrained_intra=0 / bframes=8 / b_pyramid=2 / b_adapt=2 / b_bias=0 / direct=3 / weightb=1 / open_gop=0 / weightp=2 / keyint=230 / keyint_min=23 / scenecut=40 / intra_refresh=0 / rc_lookahead=40 / rc=2pass / mbtree=1 / bitrate=9519 / ratetol=1.0 / qcomp=0.60 / qpmin=0 / qpmax=69 / qpstep=4 / cplxblur=20.0 / qblur=0.5 / vbv_maxrate=50000 / vbv_bufsize=62500 / nal_hrd=none / ip_ratio=1.40 / aq=1:0.60
Язык : Japanese
Default : Да
Forced : Нет

Аудио #1
Идентификатор : 2
Формат : DTS
Формат/Информация : Digital Theater Systems
Режим : 16
Параметр Endianness формата : Big
Идентификатор кодека : A_DTS
Продолжительность : 1 ч. 30 м.
Вид битрейта : Постоянный
Битрейт : 1509 Кбит/сек
Каналы : 5 каналов
Расположение каналов : Front: L C R, Side: L R
Частота : 48,0 КГц
Битовая глубина : 24 бит
Метод сжатия : С потерями
Размер потока : 981 Мбайт (10%)
Заголовок : DUB
Язык : Russian
Default : Да
Forced : Нет

Аудио #2
Идентификатор : 3
Формат : DTS
Формат/Информация : Digital Theater Systems
Режим : 16
Параметр Endianness формата : Big
Идентификатор кодека : A_DTS
Продолжительность : 1 ч. 30 м.
Вид битрейта : Постоянный
Битрейт : 1509 Кбит/сек
Каналы : 5 каналов
Расположение каналов : Front: L C R, Side: L R
Частота : 48,0 КГц
Битовая глубина : 24 бит
Метод сжатия : С потерями
Размер потока : 981 Мбайт (10%)
Заголовок : MVO
Язык : Russian
Default : Нет
Forced : Нет

Аудио #3
Идентификатор : 4
Формат : DTS
Формат/Информация : Digital Theater Systems
Режим : 16
Параметр Endianness формата : Big
Идентификатор кодека : A_DTS
Продолжительность : 1 ч. 30 м.
Вид битрейта : Постоянный
Битрейт : 1509 Кбит/сек
Каналы : 5 каналов
Расположение каналов : Front: L C R, Side: L R
Частота : 48,0 КГц
Битовая глубина : 24 бит
Метод сжатия : С потерями
Размер потока : 981 Мбайт (10%)
Заголовок : AVO (Андрей Гаврилов)
Язык : Russian
Default : Нет
Forced : Нет

Аудио #4
Идентификатор : 5
Формат : DTS
Формат/Информация : Digital Theater Systems
Режим : 16
Параметр Endianness формата : Big
Идентификатор кодека : A_DTS
Продолжительность : 1 ч. 30 м.
Вид битрейта : Постоянный
Битрейт : 1509 Кбит/сек
Каналы : 5 каналов
Расположение каналов : Front: L C R, Side: L R
Частота : 48,0 КГц
Битовая глубина : 24 бит
Метод сжатия : С потерями
Размер потока : 981 Мбайт (10%)
Заголовок : Original
Язык : Japanese
Default : Нет
Forced : Нет

Текст #1
Идентификатор : 6
Формат : UTF-8
Идентификатор кодека : S_TEXT/UTF8
Идентификатор кодека/Информация : UTF-8 Plain Text
Заголовок : русский
Язык : Russian
Default : Нет
Forced : Нет

Текст #2
Идентификатор : 7
Формат : UTF-8
Идентификатор кодека : S_TEXT/UTF8
Идентификатор кодека/Информация : UTF-8 Plain Text
Заголовок : английский
Default : Нет
Forced : Нет

---[Information] [21.12.2013 2:57:49] avs [info]: 1920x1036p 1:1 @ 24000/1001 fps (cfr)
---[Information] [21.12.2013 2:57:49] x264 [info]: using SAR=1/1
---[Information] [21.12.2013 2:57:49] x264 [info]: using cpu capabilities: MMX2 SSE2Fast SSSE3 SSE4.2
---[Information] [21.12.2013 2:57:49] x264 [info]: profile High, level 4.1
---[Information] [21.12.2013 14:11:17] x264 [info]: frame I:1167 Avg QP: 9.60 size:477066
---[Information] [21.12.2013 14:11:17] x264 [info]: frame P:30463 Avg QP:13.28 size:140655
---[Information] [21.12.2013 14:11:17] x264 [info]: frame B:99070 Avg QP:17.94 size: 16625
---[Information] [21.12.2013 14:11:17] x264 [info]: consecutive B-frames: 2.6% 5.2% 4.7% 35.6% 14.0% 20.5% 8.0% 7.8% 1.5%
---[Information] [21.12.2013 14:11:17] x264 [info]: mb I I16..4: 4.7% 61.3% 34.0%
---[Information] [21.12.2013 14:11:17] x264 [info]: mb P I16..4: 0.6% 9.5% 1.7% P16..4: 34.2% 28.7% 21.6% 0.0% 0.0% skip: 3.7%
---[Information] [21.12.2013 14:11:17] x264 [info]: mb B I16..4: 0.1% 1.3% 0.1% B16..8: 33.0% 8.6% 2.0% direct: 3.1% skip:51.9% L0:44.7% L1:42.4% BI:12.9%
---[Information] [21.12.2013 14:11:17] x264 [info]: 8x8 transform intra:78.5% inter:33.9%
---[Information] [21.12.2013 14:11:17] x264 [info]: direct mvs spatial:99.3% temporal:0.7%
---[Information] [21.12.2013 14:11:17] x264 [info]: coded y,uvDC,uvAC intra: 94.5% 57.9% 47.7% inter: 20.7% 11.1% 9.3%
---[Information] [21.12.2013 14:11:17] x264 [info]: i16 v,h,dc,p: 24% 9% 40% 27%
---[Information] [21.12.2013 14:11:17] x264 [info]: i8 v,h,dc,ddl,ddr,vr,hd,vl,hu: 12% 11% 30% 8% 8% 7% 7% 8% 11%
---[Information] [21.12.2013 14:11:17] x264 [info]: i4 v,h,dc,ddl,ddr,vr,hd,vl,hu: 21% 13% 8% 9% 11% 10% 9% 9% 10%
---[Information] [21.12.2013 14:11:17] x264 [info]: i8c dc,h,v,p: 53% 25% 18% 5%
---[Information] [21.12.2013 14:11:17] x264 [info]: Weighted P-Frames: Y:1.4% UV:1.0%
---[Information] [21.12.2013 14:11:17] x264 [info]: ref P L0: 59.0% 4.6% 22.8% 12.6% 1.0% 0.0%
---[Information] [21.12.2013 14:11:17] x264 [info]: ref B L0: 82.4% 13.1% 4.5%
---[Information] [21.12.2013 14:11:17] x264 [info]: ref B L1: 91.5% 8.5%
---[Information] [21.12.2013 14:11:17] x264 [info]: kb/s:9522.27
---[Information] [21.12.2013 14:11:17] encoded 130700 frames, 3.23 fps, 9522.27 kb/s
--[Information] [21.12.2013 14:11:20] Final statistics
---[Information] [21.12.2013 14:11:20] Video Bitrate Desired: 9519 kbit/s
---[Information] [21.12.2013 14:11:20] Video Bitrate Obtained (approximate): 9523 kbit/s
--[Information] [21.12.2013 14:11:20] MediaInfo
---[Information] File: E:RipSo.sklonov.Kokuriko.2011.x264.BDRipSo.sklonov.Kokuriko.2011.x264.BDRip.1080p.mkv





   Похожие торренты   Торрент   Размер 
В этой теме нет новых непрочитанных сообщений. Со склонов Кокурико / Kokuriko-zaka kara (2011) BDRip by msltel | D, P, A

11 | 14

2.35 ГБ

В этой теме нет новых непрочитанных сообщений. Со склонов Кокурико / Kokuriko-zaka kara (2011) BDRip 720p by msltel | D, P, A

16 | 5

3.84 ГБ

В этой теме нет новых непрочитанных сообщений. Со склонов Кокурико / Kokuriko-zaka kara (2011) BDRip 1080p

15 | 1

2.19 ГБ

В этой теме нет новых непрочитанных сообщений. Со склонов Кокурико / Kokuriko-zaka kara (2011) BDRip 1080p

2 | 4

12.49 ГБ

В этой теме нет новых непрочитанных сообщений. Со склонов Кокурико / Kokuriko-zaka kara (2011) BDRip от HQ-ViDEO | D, P

391 | 18

1.46 ГБ

В этой теме нет новых непрочитанных сообщений. Со склонов Кокурико / From Up on Poppy Hill / Kokuriko-zaka kara (2011) BDRip от HQ-ViDEO | D, P

27 | 11

1.46 ГБ

В этой теме нет новых непрочитанных сообщений. Со склонов Кокурико / Kokuriko-zaka kara (2011) DVD9 R5 от New-Team | D | лицензия

2 | 4

7.87 ГБ




Вы не можете начинать темы
Вы не можете отвечать на сообщения
Вы не можете редактировать свои сообщения
Вы не можете удалять свои сообщения
Вы не можете добавлять вложения

Перейти:  
Для Мосгорсуда, Роскомнадзора и рекламодателей: mosgorsud-torrent[собачка]yandex.ru
 Вход
ppkBB3cker v.2 © 2008-2014 @ PPK
[ Time : 0.041s | 16 Queries | GZIP : Off ]

Торрент трекер RUTOR.IN, Не можете зайти на rutor.org? Какой новый адрес рутор? Какое зеркало рутор? Не работает rutor.org и зеркала? Тогда наш торрент специально для вас. Rutor.in неофициальное зеркало rutor. В случае если у Вас заблокирован rutor или вдруг Вы не можете на него зайти, то Вы без труда сможете скачать бесплатно и без рекламы последние новинки кино, игр, сериалов и прочего у нас, на Rutor.in. Не нужно использовать прокси, чтобы зайти на рутор, достаточно воспользоваться нашим ресурсом. Все новые фильмы, игры, сериалы, книги и музыка за 2013 и 2014 годы через торрент бесплатно. Скачивайте фильмы в хорошем качестве, игры для пк, xbox, playstation без регистрации. У нас вы найдете новые Зарубежные сериалы и Русские сериалы 2013, 2014, 2015 годов. Оставайтесь с нами, качайте любимые фильмы, игры, сериалы, книги и музыку.
cron