img image001 image001 image001 image001 image001 image001 image001 image001 image001 image001 image001 image001 image001 image001 image001

Planets Sun Sun Sun
Статистика раздачи
Автор: PriZraK | Размер: 4.34 ГБ | Добавлен: 15 фев 2014
Раздают: 24    Качают: 13
Скачать торрент
Скачать торрент
Описание торрента

СообщениеДобавлено: 15 фев 2014 

Информация о фильме
Название: Необьятные Небеса ТВ-2
Оригинальное название: IS: Infinite Stratos TV-2
Год выхода: 2013
Жанр: Приключения, комедия, фантастика, меха, этти
Режиссер: Кикути Ясухито
В ролях:
Утияма Коки / Uchiyama Koki — Итика Оримура
Хикаса Ёко / Hikasa Yoko — Хоки Синононо
Ногами Юкана / Nogami Yukana — Сесилия Олкотт
Симода Асами / Shimoda Asami — Линь Ин Фань
Ханадзава Кана / Hanazawa Kana — Шарлотта Дюнуа
Иноуэ Марина / Inoue Marina — Лаура Бодевиг
Сайто Тива / Saito Chiwa — Татэнаси Сарасики
Мимори Судзуко / Mimori Suzuko — Кандзаси Сарасики

О фильме:
Летние каникулы кончились, и десятки красавиц-пилотов, а среди них единственный парень Итика Оримура, снова приступили к занятиям в Небесной академии. Пятеро хорошо знакомых зрителю девушек, ближний круг Оримуры, держат несокрушимую внешнюю оборону и мило разбираются между собой, но любой гарем, как и Вселенная, имеет свойство расширяться! На парня внезапно положила глаз сама Татэнаси Сарасики, президент школьного Совета. Представительница России (!) не только назначила себя личным тренером Итики, но и дала понять, что готова на большее. При всей простоте и доступности, Татэнаси – сильнейший боец молодого поколения, а значит, с ней так просто не поспоришь!
Впрочем, нет худа без добра. Хороший тренер главному герою не помешает – ведь Оримура-младший пока что силен лишь в ближнем бою, а в снайперских действиях и стратегическом мышлении рассчитывает на коллег по «бригаде». Положение серьезное, ибо парнем по-прежнему интересуются разные силы, а защитниц рядом может и не оказаться. Тем более что недавно неизвестные террористы совершили дерзкое нападение на армейскую лабораторию, а значит, охота за сверхсовременными Доспехами вспыхнула с новой силой. А самое страшное будет, если кроме подруг детства у Итики еще и новые родственницы появятся!
© Hollow, World Art
Страна: Япония
Студия: 8 bit
Продолжительность: 12 эп, ~25 мин. серия
Перевод: RU - Любительский одноголосый закадровый - Ray [UA MAX]

Файл
Кодек: XviD MPEG-4
Качество: HDTVRip (HWP)
Видео: 704 x 396, 29,97fps, ~1800 kbps
Звук: MP3, 2ch STEREO, 192 kbps, 48000 Hz Язык Русский (в составе контейнера) ; Озвучка: Ray

Семпл

Добавлена 12 серия + ОВА, перекачайте торрент, приятного просмотра

Переводчик: Kriot
Редактор: Cpt.Mal
Постер:Samotar

Общее
Полное имя : G:UA_MAX(UA MAX) IS - Infinite Stratos 2 (Ray)(UA MAX) IS - Infinite Stratos 2 - 01 (Ray).avi
Формат : AVI
Формат/Информация : Audio Video Interleave
Размер файла : 358 Мбайт
Продолжительность : 24 м.
Общий поток : 2047 Кбит/сек
Программа кодирования : Lavf52.73.0

Видео
Идентификатор : 0
Формат : xvid
Идентификатор кодека : xvid
Продолжительность : 24 м.
Битрейт : 1841 Кбит/сек
Ширина : 704 пикселя
Высота : 396 пикселей
Соотношение сторон : 16:9
Частота кадров : 29,970 кадров/сек
Бит/(Пиксели*Кадры) : 0.220
Размер потока : 322 Мбайт (90%)

Аудио
Идентификатор : 1
Формат : MPEG Audio
Версия формата : Version 1
Профиль формата : Layer 3
Режим : Joint stereo
Расширение режима : MS Stereo
Идентификатор кодека : 55
Идентификатор кодека/Подсказка : MP3
Продолжительность : 24 м.
Вид битрейта : Постоянный
Битрейт : 192 Кбит/сек
Каналы : 2 канала
Частота : 48,0 КГц
Метод сжатия : С потерями
Размер потока : 33,6 Мбайт (9%)
Выравнивание : Соединение по промежуткам
Продолжительность промежутка : 24 мс. (0,72 видеокадр)
Время предзагрузки промежутка : 24 мс.





Релиз от:



   Похожие торренты   Торрент   Размер 
В этой теме нет новых непрочитанных сообщений. Необъятные небеса / IS: Infinite Stratos TV [08] (2011) HDTVRip 720

0 | 1

410.54 МБ

В этой теме нет новых непрочитанных сообщений. Необъятные небеса / IS: Infinite Stratos 2 [ТВ-2] [01+01 из 12+1] (2013) BDRip 720p от UA MAX | L1

5 | 114

642.5 МБ

В этой теме нет новых непрочитанных сообщений. Необъятные Небеса 2 / IS: Infinite Stratos 2 [01-06 из 12] (2013) HDTV 720p | L1

3 | 2

2 ГБ

В этой теме нет новых непрочитанных сообщений. Небесные стрелки / Gunslinger Stratos: The Animation [01-04 из 12] (2015) HDTVRip 720p

41 | 9

1.49 ГБ

В этой теме нет новых непрочитанных сообщений. Небесные стрелки / Gunslinger Stratos: The Animation [01-02 из 12] (2015) HDTVRip 720p

23 | 8

699.24 МБ

В этой теме нет новых непрочитанных сообщений. Сошедшие с небес / Рухнувшие небеса / Falling Skies [S03] (2013) HDTVRip | Kerob

17 | 12

5.89 ГБ

В этой теме нет новых непрочитанных сообщений. Сошедшие с небес / Рухнувшие небеса / Falling Skies [03х01-08 из 10] (2013) HDTVRip | Kerob

3 | 11

4.96 ГБ




Вы не можете начинать темы
Вы не можете отвечать на сообщения
Вы не можете редактировать свои сообщения
Вы не можете удалять свои сообщения
Вы не можете добавлять вложения

Перейти:  
Для Мосгорсуда, Роскомнадзора и рекламодателей: mosgorsud-torrent[собачка]yandex.ru
 Вход
ppkBB3cker v.2 © 2008-2014 @ PPK
[ Time : 0.039s | 15 Queries | GZIP : Off ]

Торрент трекер RUTOR.IN, Не можете зайти на rutor.org? Какой новый адрес рутор? Какое зеркало рутор? Не работает rutor.org и зеркала? Тогда наш торрент специально для вас. Rutor.in неофициальное зеркало rutor. В случае если у Вас заблокирован rutor или вдруг Вы не можете на него зайти, то Вы без труда сможете скачать бесплатно и без рекламы последние новинки кино, игр, сериалов и прочего у нас, на Rutor.in. Не нужно использовать прокси, чтобы зайти на рутор, достаточно воспользоваться нашим ресурсом. Все новые фильмы, игры, сериалы, книги и музыка за 2013 и 2014 годы через торрент бесплатно. Скачивайте фильмы в хорошем качестве, игры для пк, xbox, playstation без регистрации. У нас вы найдете новые Зарубежные сериалы и Русские сериалы 2013, 2014, 2015 годов. Оставайтесь с нами, качайте любимые фильмы, игры, сериалы, книги и музыку.