img image001 image001 image001 image001 image001 image001 image001 image001 image001 image001 image001 image001 image001 image001 image001

Planets Sun Sun Sun
Статистика раздачи
Автор: PriZraK | Размер: 4.37 ГБ | Добавлен: 15 фев 2014
Раздают: 80    Качают: 23
Скачать торрент
Скачать торрент
Описание торрента

СообщениеДобавлено: 15 фев 2014 

Берсерк. Золотой век: Фильм I. Бехерит Властителя

Berserk Ogon Jidai-hen I: Hao no Tamago




Год выпуска: 2012
Страна: Япония
Жанр: аниме, мультфильм, фэнтези, драма, приключения
Продолжительность: 01:17:08
Перевод: Профессиональный (дублированный)
Субтитры: Russian (UTF-8), Russian (UTF-8)

Режиссер: Тосиюки Кубоока
Сценарий: Кэнтаро Миура, Икиро Окочи
Продюсер: Эйчи Камагата, Мицуру Ошима, Акира Симада, ...
Композитор: -

В ролях: Хироаки Иванага / Hiroaki Iwanaga (Guts, озвучка), Сакурай Такахиро / Sakurai Takahiro (Griffith, озвучка), Тоа Юкинари / Toa Yukinari (Casca, озвучка), Юки Кадзи / Yuki Kaji (Judeau, озвучка), Ёсиро Мацумото / Yoshiro Matsumoto (Corkus, озвучка), Минако Котобуки / Minako Kotobuki (Rickert, озвучка), Такахиро Фудзивара / Takahiro Fujiwara (Pippin, озвучка), Яо Кадзуки / Yao Kazuki (Gaston, озвучка)
Описание: Жизнь знаменитого своей силой и жестокостью наемника Гатса меняется после встречи с Гриффитсом, харизматичным вожаком легендарного отряда Соколов — банды, ни разу не терпевшей поражения в бою. Желая оправдать доверие Гриффитса, Гатс проявляет невиданную доблесть и завоевывает уважение соратников, в том числе Каски, единственной в отряде девушки-мечника. Поддержанные Гатсом успехи Гриффитса преследуют некую цель, однако каких жертв будет стоить достижение этой цели, пока неведомо никому из наших героев.

Премьера (мир): 4 февраля 2012,
Премьера (РФ): 26 апреля 2012, «Reanimedia»
Релиз на DVD: 19 февраля 2013, «Reanimedia»
Релиз на Blu-Ray: 19 февраля 2013, «Reanimedia»



Качество: BDRip 1080р
Формат: MKV
Видео кодек: AVC
Аудио кодеk: DTS + AC3
Видео: 1920x816 (2.35:1), 23.976 fps, AVC, 5 711 Kbps

Аудио #1: AC3, 448 Kbps, 48.0 KHz, 6 ch дубляж BD RUS (Реанимедиа)
Аудио #2: DTS, 1 510 Kbps, 48.0 KHz, 6 ch дубляж BD RUS (Реанимедиа)
Аудио #3: AC3, 448 Kbps, 48.0 KHz, 6 ch Japanese





Лог:
- x264 [info]: frame I:939 Avg QP:11.30 size:196034
- x264 [info]: frame P:33006 Avg QP:13.54 size: 57460
- x264 [info]: frame B:77024 Avg QP:14.36 size: 15858
- x264 [info]: consecutive B-frames: 6.6% 7.6% 12.1% 45.5% 11.6% 7.1% 4.0% 3.1% 2.3%

General
Complete name : Berserk.I.2012.BDRip.1080p.mkv
Format : Matroska
File size : 4.37 GiB
Duration : 1h 17mn
Overall bit rate : 8 116 Kbps
Encoded date : UTC 2013-12-25 09:09:49
Writing application : mkvmerge v6.5.0 ('Isn't she lovely') built on Oct 20 2013 12:50:05
Writing library : libebml v1.3.0 + libmatroska v1.4.1

Video
ID : 1
Format : AVC
Format/Info : Advanced Video Codec
Format profile : High@L4.1
Format settings, CABAC : Yes
Format settings, ReFrames : 5 frames
Muxing mode : Container profile=Unknown@4.1
Codec ID : V_MPEG4/ISO/AVC
Duration : 1h 17mn
Bit rate : 5 711 Kbps
Width : 1 920 pixels
Height : 816 pixels
Display aspect ratio : 2.35:1
Frame rate : 23.976 fps
Color space : YUV
Chroma subsampling : 4:2:0
Bit depth : 8 bits
Scan type : Progressive
Bits/(Pixel*Frame) : 0.152
Stream size : 2.99 GiB (68%)
Writing library : x264 core 140 r2377 1ca7bb9
Encoding settings : cabac=1 / ref=5 / deblock=1:0:0 / analyse=0x3:0x133 / me=umh / subme=11 / psy=1 / psy_rd=1.00:0.00 / mixed_ref=1 / me_range=32 / chroma_me=1 / trellis=2 / 8x8dct=1 / cqm=0 / deadzone=21,11 / fast_pskip=0 / chroma_qp_offset=-2 / threads=6 / lookahead_threads=1 / sliced_threads=0 / nr=0 / decimate=1 / interlaced=0 / bluray_compat=0 / constrained_intra=0 / bframes=8 / b_pyramid=2 / b_adapt=2 / b_bias=0 / direct=3 / weightb=1 / open_gop=0 / weightp=2 / keyint=240 / keyint_min=24 / scenecut=40 / intra_refresh=0 / rc_lookahead=50 / rc=2pass / mbtree=0 / bitrate=5711 / ratetol=2.0 / qcomp=1.00 / qpmin=0 / qpmax=51 / qpstep=4 / cplxblur=20.0 / qblur=0.5 / vbv_maxrate=50000 / vbv_bufsize=50000 / nal_hrd=none / filler=0 / ip_ratio=1.40 / pb_ratio=1.30 / aq=1:1.00
Language : Japanese
Color primaries : BT.709-5, BT.1361, IEC 61966-2-4, SMPTE RP177
Transfer characteristics : BT.709-5, BT.1361
Matrix coefficients : BT.709-5, BT.1361, IEC 61966-2-4 709, SMPTE RP177

Audio #1
ID : 2
Format : AC-3
Format/Info : Audio Coding 3
Mode extension : CM (complete main)
Codec ID : A_AC3
Duration : 1h 17mn
Bit rate mode : Constant
Bit rate : 448 Kbps
Channel(s) : 6 channels
Channel positions : Front: L C R, Side: L R, LFE
Sampling rate : 48.0 KHz
Bit depth : 16 bits
Stream size : 247 MiB (6%)
Language : Russian

Audio #2
ID : 3
Format : DTS
Format/Info : Digital Theater Systems
Codec ID : A_DTS
Duration : 1h 17mn
Bit rate mode : Constant
Bit rate : 1 510 Kbps
Channel(s) : 6 channels
Channel positions : Front: L C R, Side: L R, LFE
Sampling rate : 48.0 KHz
Bit depth : 24 bits
Stream size : 833 MiB (19%)
Language : Russian

Audio #3
ID : 4
Format : AC-3
Format/Info : Audio Coding 3
Mode extension : CM (complete main)
Codec ID : A_AC3
Duration : 1h 17mn
Bit rate mode : Constant
Bit rate : 448 Kbps
Channel(s) : 6 channels
Channel positions : Front: L C R, Side: L R, LFE
Sampling rate : 48.0 KHz
Bit depth : 16 bits
Stream size : 247 MiB (6%)
Language : Japanese

Text #1
ID : 5
Format : UTF-8
Codec ID : S_TEXT/UTF8
Codec ID/Info : UTF-8 Plain Text
Title : Forced
Language : Russian

Text #2
ID : 6
Format : UTF-8
Codec ID : S_TEXT/UTF8
Codec ID/Info : UTF-8 Plain Text
Title : Full
Language : Russian

Menu
00:00:00.000 : :Chapter 01
00:07:58.978 : :Chapter 02
00:17:27.838 : :Chapter 03
00:27:23.141 : :Chapter 04
00:34:32.987 : :Chapter 05
00:44:32.211 : :Chapter 06
00:50:49.045 : :Chapter 07
01:02:50.183 : :Chapter 08
01:11:08.305 : :Chapter 09
01:12:11.869 : :Chapter 10
01:16:50.022 : :Chapter 11






Релиз группы:



   Похожие торренты   Торрент   Размер 
В этой теме нет новых непрочитанных сообщений. Берсерк: Золотой век. Фильм 2: Битва за Долдрей / Berserk Ogon Jidai-hen II: Doldrey Koryaku (2012) BDRip 1080p от Freeisland

73 | 7

5.76 ГБ

В этой теме нет новых непрочитанных сообщений. Берсерк. Золотой век: Фильм III. Сошествие / Berserk Ogon Jidai-Hen III: Korin (2013) BDRip 1080p от UA MAX | D | HD+HWP

94 | 47

3.32 ГБ

В этой теме нет новых непрочитанных сообщений. Берсерк. Золотой век: Фильм III. Сошествие / Berserk Ogon Jidai-Hen III: Korin (2013) BDRip 720p от UA MAX | L2 | Director's Cut

102 | 17

1.3 ГБ

В этой теме нет новых непрочитанных сообщений. Берсерк: Золотой век. Фильм II. Битва за Долдрей / Berserk Ogon J (2012) BDRip 1080p от Killbrain and Scarabey | Лицензия | Русский видеоряд

193 | 25

3.95 ГБ

В этой теме нет новых непрочитанных сообщений. Берсерк: Золотой век (фильм) / Berserk: Golden Age Arc [movie] [1-3+1 из 3+1] (2012 - 2013) BDRip [HWP] от UA MAX |D, L2

186 | 18

4.41 ГБ

В этой теме нет новых непрочитанных сообщений. Берсерк. Золотой век: Фильм III. Сошествие / Berserk: The Golden Age Arc III - Descent (2013) BDRip 1080p от NNNB

197 | 9

5.76 ГБ

В этой теме нет новых непрочитанных сообщений. Берсерк: Золотой век (фильм) / Berserk: Golden Age Arc [movie] [1-3+1 из 3+1] (2012 - 2013) BDRip [Hi10P] от UA MAX |D, L2

80 | 23

8.18 ГБ




Вы не можете начинать темы
Вы не можете отвечать на сообщения
Вы не можете редактировать свои сообщения
Вы не можете удалять свои сообщения
Вы не можете добавлять вложения

Перейти:  
Для Мосгорсуда, Роскомнадзора и рекламодателей: mosgorsud-torrent[собачка]yandex.ru
 Вход
ppkBB3cker v.2 © 2008-2014 @ PPK
[ Time : 0.562s | 15 Queries | GZIP : Off ]

Торрент трекер RUTOR.IN, Не можете зайти на rutor.org? Какой новый адрес рутор? Какое зеркало рутор? Не работает rutor.org и зеркала? Тогда наш торрент специально для вас. Rutor.in неофициальное зеркало rutor. В случае если у Вас заблокирован rutor или вдруг Вы не можете на него зайти, то Вы без труда сможете скачать бесплатно и без рекламы последние новинки кино, игр, сериалов и прочего у нас, на Rutor.in. Не нужно использовать прокси, чтобы зайти на рутор, достаточно воспользоваться нашим ресурсом. Все новые фильмы, игры, сериалы, книги и музыка за 2013 и 2014 годы через торрент бесплатно. Скачивайте фильмы в хорошем качестве, игры для пк, xbox, playstation без регистрации. У нас вы найдете новые Зарубежные сериалы и Русские сериалы 2013, 2014, 2015 годов. Оставайтесь с нами, качайте любимые фильмы, игры, сериалы, книги и музыку.