img image001 image001 image001 image001 image001 image001 image001 image001 image001 image001 image001 image001 image001 image001 image001

Planets Sun Sun Sun
Статистика раздачи
Автор: PriZraK | Размер: 4.66 ГБ | Добавлен: 16 фев 2014
Раздают: 36    Качают: 7
Скачать торрент
Скачать торрент
Описание торрента

СообщениеДобавлено: 16 фев 2014 



За гранью / Kyoukai no Kanata









Год выпуска: 2013
Выпущено: Япония
Жанр: Приключения, мистика, мультсериал
Продолжительность: 00:25:00
Серии: 1-12
Количество серий в сезоне: 12
Автор оригинала: Тории Нагому
Перевод: Fansub ХЗ
Тайминг: Добрые дяди и тёти
Озвучка: Любительская,Многоголосая закадровая[[Ancord & Cuba77 & Shina & Trina_D ]
Субтитры: НЕТ




Рейтинг на World Art: 8.2 из 10





Режиссер: Исидатэ Тайти





Ёму и Йокаи — мифические создания, о которых испокон веков ходят легенды. Монстры, чудовища, вурдалаки — во всех странах мира эти воплощения лютой ненависти называют по-разному, но в стране восходящего солнца, которая издревле считалась их родным домом, им было дано имя Йокаи. Акихито Канбара — редкий представитель этих чудовищ, в нем течет кровь как человека, так и благороднейших ёму, но его происхождение не сделало его ни озлобленным, ни отчужденным, а, напротив, породило ярое желание жить жизнью обычных людей. В старшей школе он стал главой литературного кружка, и каждый его день проходил спокойно и размеренно, лишь под гнётом лёгких подколок подруги детства Митсуки. Но счастье не долговечно, и лишь один благородный порыв спасти красивую девочку в очках Мираи сделал из него ходячую мишень для юной охотницы на духов. И теперь Акихито, всеми правдами и неправдами, должен убедить неугомонную охотницу найти себе другую дичь или, возможно, даже защитить ее от тех, кто жаждет её проклятой крови…




Качество : HDTVRip-AVC 720р
Формат: MPEG-4
Видео кодек: H264
Видео: 2012Кбит/сек,1280х720(16.9),в 23.970кадр/сек,AVC(Baseline@L3.1)(1Ref Frames)
Аудио кодек: AAC
Аудио Russian Dolby Digital 5.1:305Кбит/сек,44.1КГц,6каналов,AAC,(Version4)(LC)





Русская звуковая дорожка сделана путем наложения чистого голоса озвучивателей на центральный канал оригинальной дорожки. Качество идентично английской звуковой дорожке.







01. - Кармин
02. - Ультрамарин
03. - Пурпурное небо
04. - Померанец
05. - Салатовый свет
06. - Светло-малиновый
07. - Цвет облаков
08. - Успокаивающий золотой
09. - Серебряный бамбук
10. - Белый мир
11. - Темный мир
12. - Серый мир







General
Полное имя : D:А Н И М ЕЗа ГраньюKyoukai_no_Kanata_2013_rus[Ancord_Shina_TrinaD_Cuba77]_DD5.1_x264_Nikolai.Baranov_HDTVRip.AVC_(720p)Kyoukai_no_Kanata_2013_е01_rus[Ancord_Shina_TrinaD_Cuba77]_DD5.1_x264_Nikolai.Baranov_HDTVRip.AVC_(720p).mp4
Формат : MPEG-4
Профиль формата : Base Media
Идентификатор кодека : isom
Размер файла : 398 MiB
Продолжительность : 23mn 59s
Режим общего битрейта : Variable
Общий поток : 2 320 Kbps
Дата кодирования : UTC 2013-12-26 17:08:51
Дата пометки : UTC 2013-12-26 17:08:51
Программа кодирования : Lavf51.12.1
Video
Идентификатор : 1
Формат : AVC
Формат/Информация : Advanced Video Codec
Профиль формата : Baseline@L3.1
Параметр CABAC формата : No
Параметр ReFrames формата : 1 frame
Параметр GOP формата : M=1, N=12
Идентификатор кодека : avc1
Идентификатор кодека/Информация : Advanced Video Coding
Продолжительность : 23mn 59s
Вид битрейта : Variable
Битрейт : 2 012 Kbps
Максимальный битрейт : 3 000 Kbps
Ширина : 1 280 pixels
Высота : 720 pixels
Соотношение сторон : 16:9
Режим частоты кадров : Constant
Частота кадров : 23.976 fps
Частота кадров в оригинале : 24.000 fps
Цветовое пространство : YUV
Субдискретизация насыщенности : 4:2:0
Битовая глубина : 8 bits
Тип развёртки : Progressive
Бит/(Пиксели*Кадры) : 0.091
Размер потока : 345 MiB (87%)
Дата кодирования : UTC 2013-12-26 17:08:51
Дата пометки : UTC 2013-12-26 17:08:51
Audio
Идентификатор : 2
Формат : AAC
Формат/Информация : Advanced Audio Codec
Профиль формата : LC
Идентификатор кодека : 40
Продолжительность : 23mn 59s
Вид битрейта : Variable
Битрейт : 305 Kbps
Каналы : 6 channels
Расположение каналов : Front: L C R, Side: L R, LFE
Частота : 44.1 KHz
Метод сжатия : Lossy
Размер потока : 52.3 MiB (13%)
Язык : English
Дата кодирования : UTC 2013-12-26 17:08:51
Дата пометки : UTC 2013-12-26 17:08:51












Релиз от: Nikolai.Baranov
















   Похожие торренты   Торрент   Размер 
В этой теме нет новых непрочитанных сообщений. За гранью / Kyoukai no Kanata [S01] (2013) HDTVRip 720p от UA MAX | L

19 | 4

4.97 ГБ

В этой теме нет новых непрочитанных сообщений. За пределами / За гранью / Kyoukai no Kanata [01-12 из 12] (2013) HDTVRip | Gezell Studio [HWP]

36 | 12

2.81 ГБ

В этой теме нет новых непрочитанных сообщений. За пределами / За гранью / Kyoukai no Kanata [01-12 из 12] (2013) HDTVRip 720p | Gezell Studio

39 | 6

4 ГБ

В этой теме нет новых непрочитанных сообщений. За Гранью / Kyoukai no Kanata [01-06 из 12] (2013) HDTV 720p | L

6 | 2

1.77 ГБ

В этой теме нет новых непрочитанных сообщений. За гранью / Kyoukai no Kanata [01-12 из 12] (2014) HDTVRip 720p от Animedia | L2

47 | 15

4.57 ГБ

В этой теме нет новых непрочитанных сообщений. За гранью / Kyoukai no Kanata [OVA] (2014) HDTVRip 720p от Animedia | L2

191 | 3

326.95 МБ

В этой теме нет новых непрочитанных сообщений. За Гранью / Kyoukai no Kanata [TV] [01 из 12] (2013) WEBRip 720p | AniFilm

2 | 2

355.59 МБ




Вы не можете начинать темы
Вы не можете отвечать на сообщения
Вы не можете редактировать свои сообщения
Вы не можете удалять свои сообщения
Вы не можете добавлять вложения

Перейти:  
Для Мосгорсуда, Роскомнадзора и рекламодателей: mosgorsud-torrent[собачка]yandex.ru
 Вход
ppkBB3cker v.2 © 2008-2014 @ PPK
[ Time : 0.061s | 16 Queries | GZIP : Off ]
CGP output time : 0.388s | 5 Queries | GZIP : Off

Торрент трекер RUTOR.IN, Не можете зайти на rutor.org? Какой новый адрес рутор? Какое зеркало рутор? Не работает rutor.org и зеркала? Тогда наш торрент специально для вас. Rutor.in неофициальное зеркало rutor. В случае если у Вас заблокирован rutor или вдруг Вы не можете на него зайти, то Вы без труда сможете скачать бесплатно и без рекламы последние новинки кино, игр, сериалов и прочего у нас, на Rutor.in. Не нужно использовать прокси, чтобы зайти на рутор, достаточно воспользоваться нашим ресурсом. Все новые фильмы, игры, сериалы, книги и музыка за 2013 и 2014 годы через торрент бесплатно. Скачивайте фильмы в хорошем качестве, игры для пк, xbox, playstation без регистрации. У нас вы найдете новые Зарубежные сериалы и Русские сериалы 2013, 2014, 2015 годов. Оставайтесь с нами, качайте любимые фильмы, игры, сериалы, книги и музыку.