img image001 image001 image001 image001 image001 image001 image001 image001 image001 image001 image001 image001 image001 image001 image001

Planets Sun Sun Sun
Статистика раздачи
Автор: PriZraK | Размер: 3.95 ГБ | Добавлен: 16 фев 2014
Раздают: 187    Качают: 25
Скачать торрент
Скачать торрент
Описание торрента

СообщениеДобавлено: 16 фев 2014 

Берсерк: Золотой век. Фильм II. Битва за Долдрей / Berserk Ogon Jidai-hen II: Doldrey Koryaku
«Ненависть — это место, куда бегут все печали…»




Страна: Япония
Студия: Studio 4°C, Warner Bros.
Жанр: аниме, мультфильм, фэнтези, драма, приключения
Год выпуска: 2012
Продолжительность: 01:33:06

Перевод: русский профессиональный (полное дублирование) [Лицензия, BD RUS] - читать подробнее о студии дубляжа «Реанимедиа»
Оригинальная аудиодорожка: японская
Русские субтитры: есть
Режиссер: Тосиюки Кубоока / Toshiyuki Kubooka
Роли озвучивали: Крис Джай Алекс, Такахиро Фудзивара, Хироаки Иванага, Юки Кадзи, Минако Котобуки, Рикия Кояма, Сакурай Такахиро, Ёсиро Мацумото, Кэнта Миякэ, Яо Кадзуки, Тоа Юкинари
Роли дублировали:
Войд — Андрей Андреев
гадалка — Ирина Кулешова
Гастон — Сергей Сущёв
Гатс — Александр Фильченко
Гриффитс — Василий Марков
Гриффитс (ребенок) — Алина Тарасова
Жюдо — Олег Бондарь
Зодд — Александр Фильченко
Каска — Анна Балицкая
Коркас — Андрей Мирошников
король — Борис Голощапов
палач — Василий Марков
Пипин — Вячеслав Аринчехин
Рикерт — Ольга Демидова
Силат — Сергей Аникин
Слэн — Вероника Райциз
Убик — Александр Новиков
Череп — Борис Голощапов
Шарлотта — Екатерина Астрединова
в эпизодах — Александр Лаенко
в эпизодах — Екатерина Карташова
в эпизодах — Николай Новицкий
в эпизодах — Владимир Дубок
в эпизодах — Эрнест Кабардинов
в эпизодах — Павел Побединский



Восхождение главаря наемников Гриффитса к вершинам власти продолжается. Он вызвался совершить невозможное: захватить бывший оплот королевства Мидлэнд. Пять тысяч всадников — против тридцатитысячного гарнизона… Но если это безумие, то разумен ли Гатс, во всем поддерживающий боевого товарища?


Тип релиза: BDRip 1080p (исходник: Берсерк: Золотой век. Фильм II. Битва за Долдрей / Berserk Ogon Jidai-hen II: Doldrey Koryaku (2012) Blu-ray 1080p AVC DTS-HD 5.1 [RUS])
Контейнер: MKV
Видео кодек: x264
Аудио кодек: AC3
Видео: AVC / High@L4.1 / 2 pass / 23,976 fps / 1920x816p (2,35:1) / 4,8 Mbps / 0.128
Аудио 1: AC3 / 5.1 ch / 640 kbps / Русский дубляж, BD RUS [Реанимедиа]
Аудио 2: AC3 / 5.1 ch / 640 kbps / Японский original, BD RUS
Субтитры: [softsub SRT]
Русские Full, BD RUS
Дополнительно: Сохранены оригинальные чаптеры (главы) как на Blu-ray


Раздача от:


АНОНСЫ МОИХ РАЗДАЧ!











x264 [info]: frame I:1311 Avg QP:13.86 size:147141
x264 [info]: frame P:41476 Avg QP:15.43 size: 50301
x264 [info]: frame B:91151 Avg QP:18.74 size: 11750

Общее
Уникальный идентификатор : 220090812973767005135796485537721559370 (0xA593F2DF40C6711AA96726B52E7D294A)
Полное имя : F:Скачка торрентBerserk.Ogon.Jidai-hen.II.Doldrey.Koryaku.2012.BDRip1080p( Killbrain)_[scarabey.org].mkv
Формат : Matroska
Версия формата : Version 2
Размер файла : 3,95 Гбайт
Продолжительность : 1 ч. 33 м.
Общий поток : 6080 Кбит/сек
Название фильма : Berserk Ogon Jidai-hen II: Doldrey Koryaku (2012) by Killbrain
Дата кодирования : UTC 2013-12-30 16:51:24
Программа кодирования : mkvmerge v5.8.0 ('No Sleep / Pillow') built on Sep 2 2012 15:37:04
Библиотека кодирования : libebml v1.2.3 + libmatroska v1.3.0

Видео
Идентификатор : 1
Формат : AVC
Формат/Информация : Advanced Video Codec
Профиль формата : High@L4.1
Параметр CABAC формата : Да
Параметр ReFrames формата : 4 кадра
Идентификатор кодека : V_MPEG4/ISO/AVC
Продолжительность : 1 ч. 33 м.
Битрейт : 4800 Кбит/сек
Ширина : 1920 пикселей
Высота : 816 пикселей
Соотношение сторон : 2,35:1
Режим частоты кадров : Постоянный
Частота кадров : 23,976 кадра/сек
Цветовое пространство : YUV
Субдискретизация насыщенности : 4:2:0
Битовая глубина : 8 бит
Тип развёртки : Прогрессивная
Бит/(Пиксели*Кадры) : 0.128
Размер потока : 3,04 Гбайт (77%)
Заголовок : Berserk Ogon Jidai-hen II: Doldrey Koryaku (2012)
Библиотека кодирования : x264 core 138 r2358 9e941d1
Настройки программы : cabac=1 / ref=4 / deblock=1:-1:-1 / analyse=0x3:0x113 / me=umh / subme=10 / psy=1 / psy_rd=1.00:0.40 / mixed_ref=1 / me_range=32 / chroma_me=1 / trellis=2 / 8x8dct=1 / cqm=0 / deadzone=21,11 / fast_pskip=0 / chroma_qp_offset=-4 / threads=3 / lookahead_threads=1 / sliced_threads=0 / nr=0 / decimate=0 / interlaced=0 / bluray_compat=0 / constrained_intra=0 / bframes=6 / b_pyramid=2 / b_adapt=2 / b_bias=0 / direct=3 / weightb=1 / open_gop=0 / weightp=2 / keyint=240 / keyint_min=24 / scenecut=40 / intra_refresh=0 / rc_lookahead=60 / rc=2pass / mbtree=0 / bitrate=4800 / ratetol=1.0 / qcomp=0.65 / qpmin=0 / qpmax=69 / qpstep=4 / cplxblur=20.0 / qblur=0.5 / vbv_maxrate=40000 / vbv_bufsize=30000 / nal_hrd=none / ip_ratio=1.40 / pb_ratio=1.30 / aq=1:0.80
Язык : Japanese
Default : Да
Forced : Нет

Аудио #1
Идентификатор : 2
Формат : AC-3
Формат/Информация : Audio Coding 3
Расширение режима : CM (complete main)
Параметр Endianness формата : Big
Идентификатор кодека : A_AC3
Продолжительность : 1 ч. 33 м.
Вид битрейта : Постоянный
Битрейт : 640 Кбит/сек
Каналы : 6 каналов
Расположение каналов : Front: L C R, Side: L R, LFE
Частота : 48,0 КГц
Битовая глубина : 16 бит
Метод сжатия : С потерями
Размер потока : 426 Мбайт (11%)
Заголовок : AC3 / 5.1 ch / 640 kbps / Русский дубляж, BD RUS
Язык : Russian
Default : Да
Forced : Нет

Аудио #2
Идентификатор : 3
Формат : AC-3
Формат/Информация : Audio Coding 3
Расширение режима : CM (complete main)
Параметр Endianness формата : Big
Идентификатор кодека : A_AC3
Продолжительность : 1 ч. 33 м.
Вид битрейта : Постоянный
Битрейт : 640 Кбит/сек
Каналы : 6 каналов
Расположение каналов : Front: L C R, Side: L R, LFE
Частота : 48,0 КГц
Битовая глубина : 16 бит
Метод сжатия : С потерями
Размер потока : 426 Мбайт (11%)
Заголовок : AC3 / 5.1 ch / 640 kbps / Японский original, BD RUS
Язык : Japanese
Default : Нет
Forced : Нет

Текст
Идентификатор : 4
Формат : UTF-8
Идентификатор кодека : S_TEXT/UTF8
Идентификатор кодека/Информация : UTF-8 Plain Text
Заголовок : Full, BD RUS
Язык : Russian
Default : Нет
Forced : Нет

Меню
00:00:00.000 : :Chapter 01
00:04:02.116 : :Chapter 02
00:17:22.166 : :Chapter 03
00:31:43.109 : :Chapter 04
00:53:30.957 : :Chapter 05
01:04:35.621 : :Chapter 06
01:13:04.379 : :Chapter 07
01:26:28.224 : :Chapter 08
01:27:28.785 : :Chapter 09
01:32:47.979 : :Chapter 10





   Похожие торренты   Торрент   Размер 
В этой теме нет новых непрочитанных сообщений. Берсерк: Золотой век. Фильм 2: Битва за Долдрей / Berserk Ogon Jidai-hen II: Doldrey Koryaku (2012) BDRip 1080p от Freeisland

73 | 7

5.76 ГБ

В этой теме нет новых непрочитанных сообщений. Берсерк. Золотой век: Фильм I. Бехерит Властителя / Berserk Ogon Jidai-hen I: Hao no Tamago (2012) BDRip 1080p от Freeisland

80 | 23

4.37 ГБ

В этой теме нет новых непрочитанных сообщений. Берсерк. Золотой век: Фильм III. Сошествие / Berserk Ogon Jidai-Hen III: Korin (2013) BDRip 1080p от UA MAX | D | HD+HWP

94 | 47

3.32 ГБ

В этой теме нет новых непрочитанных сообщений. Берсерк. Золотой век: Фильм III. Сошествие / Berserk Ogon Jidai-Hen III: Korin (2013) BDRip 720p от UA MAX | L2 | Director's Cut

102 | 17

1.3 ГБ

В этой теме нет новых непрочитанных сообщений. Берсерк: Золотой век (фильм) / Berserk: Golden Age Arc [movie] [1-3+1 из 3+1] (2012 - 2013) BDRip [HWP] от UA MAX |D, L2

186 | 18

4.41 ГБ

В этой теме нет новых непрочитанных сообщений. Берсерк. Золотой век: Фильм III. Сошествие / Berserk: The Golden Age Arc III - Descent (2013) BDRip 1080p от NNNB

197 | 9

5.76 ГБ

В этой теме нет новых непрочитанных сообщений. Берсерк: Золотой век (фильм) / Berserk: Golden Age Arc [movie] [1-3+1 из 3+1] (2012 - 2013) BDRip [Hi10P] от UA MAX |D, L2

80 | 23

8.18 ГБ




Вы не можете начинать темы
Вы не можете отвечать на сообщения
Вы не можете редактировать свои сообщения
Вы не можете удалять свои сообщения
Вы не можете добавлять вложения

Перейти:  
Для Мосгорсуда, Роскомнадзора и рекламодателей: mosgorsud-torrent[собачка]yandex.ru
 Вход
ppkBB3cker v.2 © 2008-2014 @ PPK
[ Time : 0.052s | 16 Queries | GZIP : Off ]

Торрент трекер RUTOR.IN, Не можете зайти на rutor.org? Какой новый адрес рутор? Какое зеркало рутор? Не работает rutor.org и зеркала? Тогда наш торрент специально для вас. Rutor.in неофициальное зеркало rutor. В случае если у Вас заблокирован rutor или вдруг Вы не можете на него зайти, то Вы без труда сможете скачать бесплатно и без рекламы последние новинки кино, игр, сериалов и прочего у нас, на Rutor.in. Не нужно использовать прокси, чтобы зайти на рутор, достаточно воспользоваться нашим ресурсом. Все новые фильмы, игры, сериалы, книги и музыка за 2013 и 2014 годы через торрент бесплатно. Скачивайте фильмы в хорошем качестве, игры для пк, xbox, playstation без регистрации. У нас вы найдете новые Зарубежные сериалы и Русские сериалы 2013, 2014, 2015 годов. Оставайтесь с нами, качайте любимые фильмы, игры, сериалы, книги и музыку.
cron