img image001 image001 image001 image001 image001 image001 image001 image001 image001 image001 image001 image001 image001 image001 image001

Planets Sun Sun Sun
Статистика раздачи
Автор: PriZraK | Размер: 1.3 ГБ | Добавлен: 15 фев 2014
Раздают: 102    Качают: 17
Скачать торрент
Скачать торрент
Описание торрента

СообщениеДобавлено: 15 фев 2014 

Информация о фильме
Название: Берсерк. Золотой век: Фильм III. Сошествие / Берсерк: Сошествие
Оригинальное название: Berserk Ogon Jidai-Hen III: Korin / Berserk Golden Age Arc III: Descent
Год выхода: 2013
Жанр: приключения, фэнтези, драма
Режиссер: Тосиюки Кубоока
В ролях:
Такахиро Фудзивара, Хироаки Иванага, Юки Кадзи, Кэрри Керанен, Минако Котобуки, Рикия Кояма, Ёсиро Мацумото, Кэнта Миякэ, Сакурай Такахиро, Яо Кадзуки, ...

О фильме:
Длившийся несколько мгновений «Золотой век» Мидланда оборачивается бессмысленным, беспросветным и кажущимся бесконечным Средневековьем. Взлетевшего до небес Гриффита в интересах короны бросают в один из подвалов Башни Возрождения в Виндхейме, где талантливый палач быстро превращает «ястреба» в немую неподвижную куклу. Подчиненные же Гриффита приходят к тому, с чего начинали, – усталой, голодной и находящейся при смерти банде наемников.

Тем временем Гатс в который уже раз сходит с однажды избранного пути. Вернуться к возлюбленной и спасти лучшего друга – вот о чем думает человек, которому еще при рождении из трупа было уготовано всегда жить одиночкой. Но стоит ли вставать на пути судьбы и надвигающегося апокалипсиса, если в итоге лишишься правого глаза, левой руки и привычного окружения? «Стоит», – решает берсерк в попытке спасти хоть кого-то из друзей и пройти до конца Путь Мести.

© Ярослав Гафнер, World Art

Официальный сайт

Страна: Япония
Студия: Studio 4°C
Продолжительность: 01:47:47
Перевод: русский - любительский двухголосный закадровый от SHIZA Project

Файл
Формат: MKV
Кодек: H.264, 8 бит
Качество: BDRip 720p
Видео: 1280x720, ~1465 Кбит/сек, 23,976 кадра/сек
Звук: RUS - AC3, 224 Кбит/сек,48,0 КГц, 2 канала[STEREO] - Nyasheek & Ляля
Общее
Уникальный идентификатор : 234181891121664947292451129933658382066 (0xB02DCAA9DD9D3E8ABA5DEA4C4B30DEF2)
Полное имя : G:Anime TVMOVIEBerserk The Golden Age Arc III Specail Version [HD].mkv
Формат : Matroska
Версия формата : Version 2
Размер файла : 1,30 Гбайт
Продолжительность : 1 ч. 47 м.
Общий поток : 1723 Кбит/сек
Название фильма : Berserk. Ripped by 霜月助平 sponsored by Jsum.
Дата кодирования : UTC 2013-12-30 23:44:07
Программа кодирования : mkvmerge v4.2.0 ('No Talking') сборка от Jul 28 2010 18:38:23
Библиотека кодирования : libebml v1.0.0 + libmatroska v1.0.0

Видео
Идентификатор : 1
Формат : AVC
Формат/Информация : Advanced Video Codec
Профиль формата : High@L4.0
Параметр CABAC формата : Да
Параметр ReFrames формата : 6 кадров
Идентификатор кодека : V_MPEG4/ISO/AVC
Продолжительность : 1 ч. 47 м.
Битрейт : 1465 Кбит/сек
Ширина : 1280 пикселей
Высота : 720 пикселей
Соотношение сторон : 16:9
Режим частоты кадров : Постоянный
Частота кадров : 23,976 кадра/сек
Цветовое пространство : YUV
Субдискретизация насыщенности : 4:2:0
Битовая глубина : 8 бит
Тип развёртки : Прогрессивная
Бит/(Пиксели*Кадры) : 0.066
Размер потока : 1,10 Гбайт (85%)
Язык : Japanese
Default : Да
Forced : Нет

Аудио
Идентификатор : 2
Формат : AC-3
Формат/Информация : Audio Coding 3
Расширение режима : CM (complete main)
Параметр Endianness формата : Big
Идентификатор кодека : A_AC3
Продолжительность : 1 ч. 47 м.
Вид битрейта : Постоянный
Битрейт : 224 Кбит/сек
Каналы : 2 канала
Расположение каналов : Front: L R
Частота : 48,0 КГц
Битовая глубина : 16 бит
Метод сжатия : С потерями
Размер потока : 173 Мбайт (13%)
Default : Да
Forced : Нет

Релиз от:



   Похожие торренты   Торрент   Размер 
В этой теме нет новых непрочитанных сообщений. Берсерк. Золотой век: Фильм III. Сошествие / Berserk Ogon Jidai-Hen III: Korin (2013) BDRip 1080p от UA MAX | D | HD+HWP

94 | 47

3.32 ГБ

В этой теме нет новых непрочитанных сообщений. Берсерк. Золотой век: Фильм I. Бехерит Властителя / Berserk Ogon Jidai-hen I: Hao no Tamago (2012) BDRip 1080p от Freeisland

80 | 23

4.37 ГБ

В этой теме нет новых непрочитанных сообщений. Берсерк: Золотой век. Фильм 2: Битва за Долдрей / Berserk Ogon Jidai-hen II: Doldrey Koryaku (2012) BDRip 1080p от Freeisland

73 | 7

5.76 ГБ

В этой теме нет новых непрочитанных сообщений. Берсерк. Золотой век: Фильм III. Сошествие / Berserk: The Golden Age Arc III - Descent (2013) BDRip 1080p от NNNB

197 | 9

5.76 ГБ

В этой теме нет новых непрочитанных сообщений. Берсерк: Золотой век. Фильм II. Битва за Долдрей / Berserk Ogon J (2012) BDRip 1080p от Killbrain and Scarabey | Лицензия | Русский видеоряд

193 | 25

3.95 ГБ

В этой теме нет новых непрочитанных сообщений. Берсерк: Золотой век (фильм) / Berserk: Golden Age Arc [movie] [1-3+1 из 3+1] (2012 - 2013) BDRip [HWP] от UA MAX |D, L2

186 | 18

4.41 ГБ

В этой теме нет новых непрочитанных сообщений. Берсерк: Золотой век (фильм) / Berserk: Golden Age Arc [movie] [1-3+1 из 3+1] (2012 - 2013) BDRip [Hi10P] от UA MAX |D, L2

80 | 23

8.18 ГБ




Вы не можете начинать темы
Вы не можете отвечать на сообщения
Вы не можете редактировать свои сообщения
Вы не можете удалять свои сообщения
Вы не можете добавлять вложения

Перейти:  
Для Мосгорсуда, Роскомнадзора и рекламодателей: mosgorsud-torrent[собачка]yandex.ru
 Вход
ppkBB3cker v.2 © 2008-2014 @ PPK
[ Time : 0.435s | 17 Queries | GZIP : Off ]

Торрент трекер RUTOR.IN, Не можете зайти на rutor.org? Какой новый адрес рутор? Какое зеркало рутор? Не работает rutor.org и зеркала? Тогда наш торрент специально для вас. Rutor.in неофициальное зеркало rutor. В случае если у Вас заблокирован rutor или вдруг Вы не можете на него зайти, то Вы без труда сможете скачать бесплатно и без рекламы последние новинки кино, игр, сериалов и прочего у нас, на Rutor.in. Не нужно использовать прокси, чтобы зайти на рутор, достаточно воспользоваться нашим ресурсом. Все новые фильмы, игры, сериалы, книги и музыка за 2013 и 2014 годы через торрент бесплатно. Скачивайте фильмы в хорошем качестве, игры для пк, xbox, playstation без регистрации. У нас вы найдете новые Зарубежные сериалы и Русские сериалы 2013, 2014, 2015 годов. Оставайтесь с нами, качайте любимые фильмы, игры, сериалы, книги и музыку.