img image001 image001 image001 image001 image001 image001 image001 image001 image001 image001 image001 image001 image001 image001 image001

Planets Sun Sun Sun
Статистика раздачи
Автор: PriZraK | Размер: 8.18 ГБ | Добавлен: 15 фев 2014
Раздают: 80    Качают: 23
Скачать торрент
Скачать торрент
Описание торрента

СообщениеДобавлено: 15 фев 2014 



Страна: Япония
Год выпуска: 2012 г.
Жанр: приключения, фэнтези, драма
Продолжительность: 01:17:08
Режиссер: Кубока Тосиюки

Студия:
Краткое содержание:Наемник Гатс делает первые шаги по пути поиска смысла своего существования. Делает их на поле боя, где, если верить старой поговорке, нельзя доверять даже собственным родителям, где каждый случайный камень под ногами грозит обернуться надгробием. И чем дальше война – тем меньше знакомых лиц перед глазами.

Побежденный амбициозным Гриффитом, предводителем отряда Ястребов, Гатс прибивается под его крыло, одновременно находит в нем друга и определяется с целью жизни. А вот кого «добывает» сам Гриффит в лице Гатса – верного друга или еще один верный клинок – с уверенностью сказать не удается.

© Ярослав Гафнер, World Art



Официальный сайт

Качество: BDRip
Тип релиза: Без хардсаба
Формат видео: MKV
Кодек: x264 - [Hi10p]
Видео: 1280x544, ~1800 Кбит/сек, 23,976 кадра/сек
Аудио: AC3, 640 Кбит/сек, 48 КГц, 5.1 CH Язык Русский (Дубляж от Reanimedia) ;
Аудио: AAC, ~192 Кбит/сек, 48 КГц, 2CH Оригинал ;
Субтитры: ASS, внешние Язык субтитров русский ; Перевод: Anku, Makentosh, NLTakaSMOG / Редактор/Оформление: mutagenb
Общее
Уникальный идентификатор : 181563837559648852723551149217261478220 (0x8897EC540B14C05D8A3FB1E50D06E14C)
Полное имя : G:Anime TVMOVIEBerserk The Golden Age Arc [BD]Berserk - Golden Age Chapter I - Egg of the High King.mkv
Формат : Matroska
Версия формата : Version 2
Размер файла : 1,53 Гбайт
Продолжительность : 1 ч. 17 м.
Общий поток : 2836 Кбит/сек
Дата кодирования : UTC 2014-01-02 12:12:41
Программа кодирования : mkvmerge v4.2.0 ('No Talking') сборка от Jul 28 2010 18:38:23
Библиотека кодирования : libebml v1.0.0 + libmatroska v1.0.0
Attachment : Yes / Yes / Yes / Yes / Yes / Yes

Видео
Идентификатор : 1
Формат : AVC
Формат/Информация : Advanced Video Codec
Профиль формата : High 10@L5.0
Параметр CABAC формата : Да
Параметр ReFrames формата : 16 кадров
Режим смешивания : Header stripping
Идентификатор кодека : V_MPEG4/ISO/AVC
Продолжительность : 1 ч. 17 м.
Ширина : 1280 пикселей
Высота : 544 пикселя
Соотношение сторон : 2,35:1
Режим частоты кадров : Постоянный
Частота кадров : 23,976 кадра/сек
Цветовое пространство : YUV
Субдискретизация насыщенности : 4:2:0
Битовая глубина : 10 бит
Тип развёртки : Прогрессивная
Библиотека кодирования : x264 core 129 r2245+729M 1a52e03
Настройки программы : cabac=1 / ref=16 / deblock=1:0:0 / analyse=0x3:0x133 / me=umh / subme=10 / psy=1 / fade_compensate=0.72 / psy_rd=0.80:0.20 / mixed_ref=1 / me_range=24 / chroma_me=1 / trellis=2 / 8x8dct=1 / cqm=0 / deadzone=21,11 / fast_pskip=1 / chroma_qp_offset=-3 / threads=12 / lookahead_threads=3 / sliced_threads=0 / nr=0 / decimate=1 / interlaced=0 / bluray_compat=0 / constrained_intra=0 / fgo=0 / bframes=16 / b_pyramid=2 / b_adapt=2 / b_bias=0 / direct=3 / weightb=1 / open_gop=0 / weightp=2 / keyint=250 / keyint_min=23 / scenecut=40 / intra_refresh=0 / rc_lookahead=40 / rc=crf / mbtree=1 / crf=15.5 / qcomp=0.72 / qpmin=0 / qpmax=81 / qpstep=4 / ip_ratio=1.40 / aq=3:0.80
Язык : English
Default : Да
Forced : Нет

Аудио #1
Идентификатор : 2
Формат : AC-3
Формат/Информация : Audio Coding 3
Расширение режима : CM (complete main)
Параметр Endianness формата : Big
Режим смешивания : Header stripping
Идентификатор кодека : A_AC3
Продолжительность : 1 ч. 17 м.
Вид битрейта : Постоянный
Битрейт : 640 Кбит/сек
Каналы : 6 каналов
Расположение каналов : Front: L C R, Side: L R, LFE
Частота : 48,0 КГц
Битовая глубина : 16 бит
Метод сжатия : С потерями
Размер потока : 353 Мбайт (23%)
Заголовок : DUB
Язык : Russian
Default : Да
Forced : Нет

Аудио #2
Идентификатор : 3
Формат : AAC
Формат/Информация : Advanced Audio Codec
Профиль формата : LC
Идентификатор кодека : A_AAC
Продолжительность : 1 ч. 17 м.
Каналы : 2 канала
Расположение каналов : Front: L R
Частота : 48,0 КГц
Метод сжатия : С потерями
Задержка видео : 9 мс.
Заголовок : Commie
Язык : Japanese
Default : Нет
Forced : Нет




Страна: Япония
Год выпуска: 2012 г.
Жанр: приключения, фэнтези, драма
Продолжительность: 01:33:05
Режиссер: Кубока Тосиюки

Студия:
Краткое содержание:100-летняя война королевства Мидланд и империи Тюдор подходит к концу: у стен крепости Долдрей, со взятия которой имперцами и начался «железный век», появляется банда Ястреба. Теперь это не простой отряд наемников, а ударная часть регулярной армии Мидланда.

Несмотря на предельно краткое резюме штаба королевской армии насчет Долдрей – «взять нереально» – «ястребы» полны решимости клинками проложить путь к светлому будущему с балами и пирами. Если занять крепость окажется не под силу даже Гриффиту, возможно, величайшему герою тысячелетия, то вряд ли еще один безумец впоследствии рискнет своими зубами против этого «орешка».

Но в самом ли деле кому-то нужен покой в Мидланде? Ведь даже наследница престола восклицает: «Я одинока, пока в мире властвует мир…»

© Ярослав Гафнер, World Art



Официальный сайт

Качество: BDRip
Тип релиза: Без хардсаба
Формат видео: MKV
Кодек: x264 - [Hi10p]
Видео: 1280x544, ~1800 Кбит/сек, 23,976 кадра/сек
Аудио: AC3, 640 Кбит/сек, 48 КГц, 5.1 CH Язык Русский (Дубляж от Reanimedia) ;
Аудио: AAC, ~192 Кбит/сек, 48 КГц, 2CH Оригинал ;
Субтитры: ASS, внешние Язык субтитров русский ; Перевод: Anku, Cracknight, shizoidal / Редактор/Оформление: mutagenb
Общее
Уникальный идентификатор : 200597429160973423990229330736634378371 (0x96E9A8D8D8D092BDA1B0B9686143B883)
Полное имя : G:Anime TVMOVIEBerserk The Golden Age Arc [BD]Berserk - Golden Age Chapter II - The Capture of Doldrey.mkv
Формат : Matroska
Версия формата : Version 2
Размер файла : 1,78 Гбайт
Продолжительность : 1 ч. 33 м.
Общий поток : 2742 Кбит/сек
Название фильма : Berserk. Ripped by 霜月助平 sponsored by Jsum.
Дата кодирования : UTC 2014-01-02 12:15:57
Программа кодирования : mkvmerge v4.2.0 ('No Talking') сборка от Jul 28 2010 18:38:23
Библиотека кодирования : libebml v1.0.0 + libmatroska v1.0.0
Attachment : Yes / Yes / Yes / Yes / Yes / Yes

Видео
Идентификатор : 1
Формат : AVC
Формат/Информация : Advanced Video Codec
Профиль формата : High 10@L5.0
Параметр CABAC формата : Да
Параметр ReFrames формата : 16 кадров
Режим смешивания : Header stripping
Идентификатор кодека : V_MPEG4/ISO/AVC
Продолжительность : 1 ч. 33 м.
Ширина : 1280 пикселей
Высота : 544 пикселя
Соотношение сторон : 2,35:1
Режим частоты кадров : Постоянный
Частота кадров : 23,976 кадра/сек
Цветовое пространство : YUV
Субдискретизация насыщенности : 4:2:0
Битовая глубина : 10 бит
Тип развёртки : Прогрессивная
Библиотека кодирования : x264 core 120 r2164+656 2ff844c
Настройки программы : cabac=1 / ref=16 / deblock=1:-1:-1 / analyse=0x3:0x133 / me=umh / subme=10 / psy=1 / fade_compensate=0.80 / psy_rd=0.60:0.10 / mixed_ref=1 / me_range=24 / chroma_me=1 / trellis=2 / 8x8dct=1 / cqm=0 / deadzone=21,11 / fast_pskip=1 / chroma_qp_offset=-3 / threads=18 / sliced_threads=0 / nr=0 / decimate=1 / interlaced=0 / bluray_compat=0 / constrained_intra=0 / fgo=0 / bframes=12 / b_pyramid=2 / b_adapt=2 / b_bias=0 / direct=3 / weightb=1 / open_gop=0 / weightp=2 / keyint=250 / keyint_min=23 / scenecut=40 / intra_refresh=0 / rc_lookahead=60 / rc=crf / mbtree=1 / crf=15.5 / qcomp=0.72 / qpmin=4 / qpmax=81 / qpstep=4 / ip_ratio=1.40 / aq=2:0.80
Язык : English
Default : Да
Forced : Нет

Аудио #1
Идентификатор : 2
Формат : AC-3
Формат/Информация : Audio Coding 3
Расширение режима : CM (complete main)
Параметр Endianness формата : Big
Режим смешивания : Header stripping
Идентификатор кодека : A_AC3
Продолжительность : 1 ч. 33 м.
Вид битрейта : Постоянный
Битрейт : 640 Кбит/сек
Каналы : 6 каналов
Расположение каналов : Front: L C R, Side: L R, LFE
Частота : 48,0 КГц
Битовая глубина : 16 бит
Метод сжатия : С потерями
Размер потока : 426 Мбайт (23%)
Заголовок : AC3 / 5.1 ch / 640 kbps / Русский дубляж, BD RUS
Язык : Russian
Default : Да
Forced : Нет

Аудио #2
Идентификатор : 3
Формат : AAC
Формат/Информация : Advanced Audio Codec
Профиль формата : LC
Идентификатор кодека : A_AAC
Продолжительность : 1 ч. 33 м.
Каналы : 2 канала
Расположение каналов : Front: L R
Частота : 48,0 КГц
Метод сжатия : С потерями
Заголовок : Commie
Язык : Japanese
Default : Нет
Forced : Нет




Страна: Япония
Год выпуска: 2013 г.
Жанр: приключения, фэнтези, драма
Продолжительность: 01:52:39
Режиссер: Кубока Тосиюки

Студия:
Краткое содержание: Длившийся несколько мгновений «Золотой век» Мидланда оборачивается бессмысленным, беспросветным и кажущимся бесконечным Средневековьем. Взлетевшего до небес Гриффита в интересах короны бросают в один из подвалов Башни Возрождения в Виндхейме, где талантливый палач быстро превращает «ястреба» в немую неподвижную куклу. Подчиненные же Гриффита приходят к тому, с чего начинали, – усталой, голодной и находящейся при смерти банде наемников.

Тем временем Гатс в который уже раз сходит с однажды избранного пути. Вернуться к возлюбленной и спасти лучшего друга – вот о чем думает человек, которому еще при рождении из трупа было уготовано всегда жить одиночкой. Но стоит ли вставать на пути судьбы и надвигающегося апокалипсиса, если в итоге лишишься правого глаза, левой руки и привычного окружения? «Стоит», – решает берсерк в попытке спасти хоть кого-то из друзей и пройти до конца Путь Мести.
© Ярослав Гафнер, World Art



Официальный сайт

Качество: BDRip
Тип релиза: Без хардсаба
Формат видео: MKV
Кодек: x264 - [Hi10p]
Видео: 1280x544, ~1800 Кбит/сек, 23,976 кадра/сек
Аудио: AC3, 640 Кбит/сек, 48 КГц, 5.1 CH Язык Русский (любительский двухголосный закадровый от SHIZA Project (Nyasheek & Ляля)) ;
Аудио: AAC, ~192 Кбит/сек, 48 КГц, 2CH Оригинал ;
Субтитры: ASS, внешние Язык субтитров русский ; Перевод: Anku, shizoidal / Редактор/Оформление: mutagenb
Общее
Уникальный идентификатор : 173872044640174377524403729128488460885 (0x82CE89A8708AD05FAC32938AC1586255)
Полное имя : G:Anime TVMOVIEBerserk The Golden Age Arc [BD]Berserk - Golden Age Chapter III - Advent.mkv
Формат : Matroska
Версия формата : Version 2
Размер файла : 2,38 Гбайт
Продолжительность : 1 ч. 52 м.
Общий поток : 3022 Кбит/сек
Название фильма : Berserk. Ripped by 霜月助平 sponsored by Jsum.
Дата кодирования : UTC 2014-01-02 12:19:21
Программа кодирования : mkvmerge v4.2.0 ('No Talking') сборка от Jul 28 2010 18:38:23
Библиотека кодирования : libebml v1.0.0 + libmatroska v1.0.0
Attachment : Yes / Yes / Yes / Yes

Видео
Идентификатор : 1
Формат : AVC
Формат/Информация : Advanced Video Codec
Профиль формата : High 10@L5.0
Параметр CABAC формата : Да
Параметр ReFrames формата : 16 кадров
Режим смешивания : Header stripping
Идентификатор кодека : V_MPEG4/ISO/AVC
Продолжительность : 1 ч. 52 м.
Ширина : 1280 пикселей
Высота : 544 пикселя
Соотношение сторон : 2,35:1
Режим частоты кадров : Постоянный
Частота кадров : 23,976 кадра/сек
Цветовое пространство : YUV
Субдискретизация насыщенности : 4:2:0
Битовая глубина : 10 бит
Тип развёртки : Прогрессивная
Библиотека кодирования : x264 core 129 r2245+729M 1a52e03
Настройки программы : cabac=1 / ref=16 / deblock=1:-1:-1 / analyse=0x3:0x133 / me=umh / subme=10 / psy=1 / fade_compensate=0.72 / psy_rd=0.70:0.15 / mixed_ref=1 / me_range=24 / chroma_me=1 / trellis=2 / 8x8dct=1 / cqm=0 / deadzone=21,11 / fast_pskip=1 / chroma_qp_offset=-3 / threads=12 / lookahead_threads=3 / sliced_threads=0 / nr=0 / decimate=1 / interlaced=0 / bluray_compat=0 / constrained_intra=0 / fgo=0 / bframes=16 / b_pyramid=2 / b_adapt=2 / b_bias=0 / direct=3 / weightb=1 / open_gop=0 / weightp=2 / keyint=250 / keyint_min=23 / scenecut=40 / intra_refresh=0 / rc_lookahead=60 / rc=crf / mbtree=1 / crf=15.5 / qcomp=0.72 / qpmin=0 / qpmax=81 / qpstep=4 / ip_ratio=1.40 / aq=3:0.80
Язык : English
Default : Да
Forced : Нет

Аудио #1
Идентификатор : 2
Формат : AC-3
Формат/Информация : Audio Coding 3
Расширение режима : CM (complete main)
Параметр Endianness формата : Big
Режим смешивания : Header stripping
Идентификатор кодека : A_AC3
Продолжительность : 1 ч. 52 м.
Вид битрейта : Постоянный
Битрейт : 640 Кбит/сек
Каналы : 6 каналов
Расположение каналов : Front: L C R, Side: L R, LFE
Частота : 48,0 КГц
Битовая глубина : 16 бит
Метод сжатия : С потерями
Размер потока : 516 Мбайт (21%)
Заголовок : Nyasheek & Ляля
Язык : Russian
Default : Да
Forced : Нет

Аудио #2
Идентификатор : 3
Формат : AAC
Формат/Информация : Advanced Audio Codec
Профиль формата : LC
Идентификатор кодека : A_AAC
Продолжительность : 1 ч. 52 м.
Каналы : 2 канала
Расположение каналов : Front: L R
Частота : 48,0 КГц
Метод сжатия : С потерями
Задержка видео : 9 мс.
Заголовок : Commie
Язык : Japanese
Default : Нет
Forced : Нет




Страна: Япония
Год выпуска: 2013 г.
Жанр: приключения, фэнтези, драма
Продолжительность: 01:47:47
Режиссер: Кубока Тосиюки

Студия:
Краткое содержание:R-18 Director's Cut

Официальный сайт

Качество: BDRip
Тип релиза: Без хардсаба
Формат видео: MKV
Кодек: x264 - [Hi10p]
Видео: 1920x816, ~2400 Кбит/сек, 23,976 кадра/сек
Аудио: AC3, 640 Кбит/сек, 48 КГц, 5.1 CH Язык Русский (любительский двухголосный закадровый от SHIZA Project (Nyasheek & Ляля)) ;
Аудио: AAC, ~192 Кбит/сек, 48 КГц, 2CH Оригинал ;
Субтитры: SRT, внешние Язык субтитров русский ; Перевод: Keilex
Общее
Уникальный идентификатор : 223957909625734665301606348261660282226 (0xA87CB97519A6D03C805FB8E06EA3CD72)
Полное имя : G:Anime TVMOVIEBerserk The Golden Age Arc [BD]Berserk - Golden Age Chapter III - Advent [Special Version].mkv
Формат : Matroska
Версия формата : Version 2
Размер файла : 2,49 Гбайт
Продолжительность : 1 ч. 47 м.
Общий поток : 3303 Кбит/сек
Название фильма : ripped by 霜月助平 sponsored by Jsum
Дата кодирования : UTC 2014-01-02 13:27:42
Программа кодирования : mkvmerge v4.2.0 ('No Talking') сборка от Jul 28 2010 18:38:23
Библиотека кодирования : libebml v1.0.0 + libmatroska v1.0.0

Видео
Идентификатор : 1
Формат : AVC
Формат/Информация : Advanced Video Codec
Профиль формата : High 10@L5.1
Параметр CABAC формата : Да
Параметр ReFrames формата : 7 кадров
Режим смешивания : Header stripping
Идентификатор кодека : V_MPEG4/ISO/AVC
Продолжительность : 1 ч. 47 м.
Ширина : 1920 пикселей
Высота : 816 пикселей
Соотношение сторон : 2,35:1
Режим частоты кадров : Постоянный
Частота кадров : 23,976 кадра/сек
Цветовое пространство : YUV
Субдискретизация насыщенности : 4:2:0
Битовая глубина : 10 бит
Тип развёртки : Прогрессивная
Библиотека кодирования : x264 core 133 r2334+704+50 a7549b7 tMod [10-bit@all X86]
Язык : English
Default : Да
Forced : Нет
Коэффициенты матрицы : BT.709

Аудио #1
Идентификатор : 2
Формат : AC-3
Формат/Информация : Audio Coding 3
Расширение режима : CM (complete main)
Параметр Endianness формата : Big
Режим смешивания : Header stripping
Идентификатор кодека : A_AC3
Продолжительность : 1 ч. 47 м.
Вид битрейта : Постоянный
Битрейт : 640 Кбит/сек
Каналы : 6 каналов
Расположение каналов : Front: L C R, Side: L R, LFE
Частота : 48,0 КГц
Битовая глубина : 16 бит
Метод сжатия : С потерями
Размер потока : 493 Мбайт (19%)
Заголовок : SHIZA
Язык : Russian
Default : Да
Forced : Нет

Аудио #2
Идентификатор : 3
Формат : AAC
Формат/Информация : Advanced Audio Codec
Профиль формата : LC
Идентификатор кодека : A_AAC
Продолжительность : 1 ч. 47 м.
Каналы : 2 канала
Расположение каналов : Front: L R
Частота : 48,0 КГц
Метод сжатия : С потерями
Задержка видео : 20 мс.
Default : Нет
Forced : Нет


С офф сайта:
収録時間:本編113分(R-15版本編)+特典映像/特典CD/特典ディスク(R-18版本編※)


Релиз от:



   Похожие торренты   Торрент   Размер 
В этой теме нет новых непрочитанных сообщений. Берсерк: Золотой век (фильм) / Berserk: Golden Age Arc [movie] [1-3+1 из 3+1] (2012 - 2013) BDRip [HWP] от UA MAX |D, L2

186 | 18

4.41 ГБ

В этой теме нет новых непрочитанных сообщений. Берсерк. Золотой век: Фильм III. Сошествие / Berserk: The Golden Age Arc III - Descent (2013) BDRip 1080p от NNNB

197 | 9

5.76 ГБ

В этой теме нет новых непрочитанных сообщений. Берсерк. Золотой век: Фильм III. Сошествие / Berserk Ogon Jidai-Hen III: Korin (2013) BDRip 1080p от UA MAX | D | HD+HWP

94 | 47

3.32 ГБ

В этой теме нет новых непрочитанных сообщений. Берсерк. Золотой век: Фильм III. Сошествие / Berserk Ogon Jidai-Hen III: Korin (2013) BDRip 720p от UA MAX | L2 | Director's Cut

102 | 17

1.3 ГБ

В этой теме нет новых непрочитанных сообщений. Берсерк. Золотой век: Фильм I. Бехерит Властителя / Berserk Ogon Jidai-hen I: Hao no Tamago (2012) BDRip 1080p от Freeisland

80 | 23

4.37 ГБ

В этой теме нет новых непрочитанных сообщений. Берсерк: Золотой век. Фильм 2: Битва за Долдрей / Berserk Ogon Jidai-hen II: Doldrey Koryaku (2012) BDRip 1080p от Freeisland

73 | 7

5.76 ГБ

В этой теме нет новых непрочитанных сообщений. Берсерк: Золотой век. Фильм II. Битва за Долдрей / Berserk Ogon J (2012) BDRip 1080p от Killbrain and Scarabey | Лицензия | Русский видеоряд

193 | 25

3.95 ГБ




Вы не можете начинать темы
Вы не можете отвечать на сообщения
Вы не можете редактировать свои сообщения
Вы не можете удалять свои сообщения
Вы не можете добавлять вложения

Перейти:  
Для Мосгорсуда, Роскомнадзора и рекламодателей: mosgorsud-torrent[собачка]yandex.ru
 Вход
ppkBB3cker v.2 © 2008-2014 @ PPK
[ Time : 0.036s | 15 Queries | GZIP : Off ]

Торрент трекер RUTOR.IN, Не можете зайти на rutor.org? Какой новый адрес рутор? Какое зеркало рутор? Не работает rutor.org и зеркала? Тогда наш торрент специально для вас. Rutor.in неофициальное зеркало rutor. В случае если у Вас заблокирован rutor или вдруг Вы не можете на него зайти, то Вы без труда сможете скачать бесплатно и без рекламы последние новинки кино, игр, сериалов и прочего у нас, на Rutor.in. Не нужно использовать прокси, чтобы зайти на рутор, достаточно воспользоваться нашим ресурсом. Все новые фильмы, игры, сериалы, книги и музыка за 2013 и 2014 годы через торрент бесплатно. Скачивайте фильмы в хорошем качестве, игры для пк, xbox, playstation без регистрации. У нас вы найдете новые Зарубежные сериалы и Русские сериалы 2013, 2014, 2015 годов. Оставайтесь с нами, качайте любимые фильмы, игры, сериалы, книги и музыку.