img image001 image001 image001 image001 image001 image001 image001 image001 image001 image001 image001 image001 image001 image001 image001

Planets Sun Sun Sun
Статистика раздачи
Автор: PriZraK | Размер: 4.41 ГБ | Добавлен: 15 фев 2014
Раздают: 186    Качают: 18
Скачать торрент
Скачать торрент
Описание торрента

СообщениеДобавлено: 15 фев 2014 



Страна: Япония
Год выпуска: 2012 г.
Жанр: приключения, фэнтези, драма
Продолжительность: 01:17:08
Режиссер: Кубока Тосиюки

Студия:
Краткое содержание:Наемник Гатс делает первые шаги по пути поиска смысла своего существования. Делает их на поле боя, где, если верить старой поговорке, нельзя доверять даже собственным родителям, где каждый случайный камень под ногами грозит обернуться надгробием. И чем дальше война – тем меньше знакомых лиц перед глазами.

Побежденный амбициозным Гриффитом, предводителем отряда Ястребов, Гатс прибивается под его крыло, одновременно находит в нем друга и определяется с целью жизни. А вот кого «добывает» сам Гриффит в лице Гатса – верного друга или еще один верный клинок – с уверенностью сказать не удается.

© Ярослав Гафнер, World Art



Официальный сайт

Качество: BDRip
Тип релиза: Без хардсаба
Формат видео: AVI
Кодек: XviD
Видео: 720x304, 1200 Кбит/сек, 23,976 кадра/сек
Аудио: AC3, 192 Кбит/сек, 48 КГц, 2CH Язык Русский (Дубляж от Reanimedia) ;
Аудио: AC3, 192 Кбит/сек, 48 КГц, 2CH Оригинал ;
Субтитры: SRT, внешние Язык субтитров русский ; Перевод: Anku, Makentosh, NLTakaSMOG / Редактор/Оформление: mutagenb
Общее
Полное имя : E:Berserk - Golden Age [BD][HWP]Berserk - Golden Age Chapter I - Egg of the High King.avi
Формат : AVI
Формат/Информация : Audio Video Interleave
Размер файла : 910 Мбайт
Продолжительность : 1 ч. 16 м.
Общий поток : 1657 Кбит/сек
Программа кодирования : VirtualDubMod 1.5.10.3 | www.virtualdub-fr.org || (build 2550/release)
Библиотека кодирования : VirtualDubMod build 2550/release

Видео
Идентификатор : 0
Формат : MPEG-4 Visual
Профиль формата : Advanced Simple@L5
Параметр BVOP формата : 2
Параметр QPel формата : Нет
Параметр GMC формата : Без точки перехода
Параметр матрицы формата : Default (H.263)
Идентификатор кодека : XVID
Идентификатор кодека/Подсказка : XviD
Продолжительность : 1 ч. 16 м.
Битрейт : 1259 Кбит/сек
Ширина : 720 пикселей
Высота : 304 пикселя
Соотношение сторон : 2,35:1
Частота кадров : 23,976 кадра/сек
Цветовое пространство : YUV
Субдискретизация насыщенности : 4:2:0
Битовая глубина : 8 бит
Тип развёртки : Прогрессивная
Метод сжатия : С потерями
Бит/(Пиксели*Кадры) : 0.240
Размер потока : 691 Мбайт (76%)
Библиотека кодирования : XviD 1.2.1 (UTC 2008-12-04)

Аудио #1
Идентификатор : 1
Формат : AC-3
Формат/Информация : Audio Coding 3
Расширение режима : CM (complete main)
Параметр Endianness формата : Big
Идентификатор кодека : 2000
Продолжительность : 1 ч. 16 м.
Вид битрейта : Постоянный
Битрейт : 192 Кбит/сек
Каналы : 2 канала
Расположение каналов : Front: L R
Частота : 48,0 КГц
Битовая глубина : 16 бит
Метод сжатия : С потерями
Размер потока : 105 Мбайт (12%)
Выравнивание : Разделение по промежуткам
Продолжительность промежутка : 42 мс. (1,00 видеокадр)
Время предзагрузки промежутка : 500 мс.

Аудио #2
Идентификатор : 2
Формат : AC-3
Формат/Информация : Audio Coding 3
Расширение режима : CM (complete main)
Параметр Endianness формата : Big
Идентификатор кодека : 2000
Продолжительность : 1 ч. 16 м.
Вид битрейта : Постоянный
Битрейт : 192 Кбит/сек
Каналы : 2 канала
Расположение каналов : Front: L R
Частота : 48,0 КГц
Битовая глубина : 16 бит
Метод сжатия : С потерями
Размер потока : 105 Мбайт (12%)
Выравнивание : Разделение по промежуткам
Продолжительность промежутка : 42 мс. (1,00 видеокадр)
Время предзагрузки промежутка : 500 мс.




Страна: Япония
Год выпуска: 2012 г.
Жанр: приключения, фэнтези, драма
Продолжительность: 01:33:05
Режиссер: Кубока Тосиюки

Студия:
Краткое содержание:100-летняя война королевства Мидланд и империи Тюдор подходит к концу: у стен крепости Долдрей, со взятия которой имперцами и начался «железный век», появляется банда Ястреба. Теперь это не простой отряд наемников, а ударная часть регулярной армии Мидланда.

Несмотря на предельно краткое резюме штаба королевской армии насчет Долдрей – «взять нереально» – «ястребы» полны решимости клинками проложить путь к светлому будущему с балами и пирами. Если занять крепость окажется не под силу даже Гриффиту, возможно, величайшему герою тысячелетия, то вряд ли еще один безумец впоследствии рискнет своими зубами против этого «орешка».

Но в самом ли деле кому-то нужен покой в Мидланде? Ведь даже наследница престола восклицает: «Я одинока, пока в мире властвует мир…»

© Ярослав Гафнер, World Art



Официальный сайт

Качество: BDRip
Тип релиза: Без хардсаба
Формат видео: AVI
Кодек: XviD
Видео: 720x304, 1200 Кбит/сек, 23,976 кадра/сек
Аудио: AC3, 192 Кбит/сек, 48 КГц, 2CH Язык Русский (Дубляж от Reanimedia) ;
Аудио: AC3, 192 Кбит/сек, 48 КГц, 2CH Оригинал ;
Субтитры: SRT, внешние Язык субтитров русский ; Перевод: Anku, Cracknight, shizoidal / Редактор/Оформление: mutagenb
Общее
Полное имя : E:Berserk - Golden Age [BD][HWP]Berserk - Golden Age Chapter II - The Capture of Doldrey.avi
Формат : AVI
Формат/Информация : Audio Video Interleave
Размер файла : 1,06 Гбайт
Продолжительность : 1 ч. 32 м.
Общий поток : 1641 Кбит/сек
Программа кодирования : VirtualDubMod 1.5.10.3 | www.virtualdub-fr.org || (build 2550/release)
Библиотека кодирования : VirtualDubMod build 2550/release

Видео
Идентификатор : 0
Формат : MPEG-4 Visual
Профиль формата : Advanced Simple@L5
Параметр BVOP формата : 2
Параметр QPel формата : Нет
Параметр GMC формата : Без точки перехода
Параметр матрицы формата : Default (H.263)
Идентификатор кодека : XVID
Идентификатор кодека/Подсказка : XviD
Продолжительность : 1 ч. 32 м.
Битрейт : 1243 Кбит/сек
Ширина : 720 пикселей
Высота : 304 пикселя
Соотношение сторон : 2,35:1
Частота кадров : 23,976 кадра/сек
Цветовое пространство : YUV
Субдискретизация насыщенности : 4:2:0
Битовая глубина : 8 бит
Тип развёртки : Прогрессивная
Метод сжатия : С потерями
Бит/(Пиксели*Кадры) : 0.237
Размер потока : 824 Мбайт (76%)
Библиотека кодирования : XviD 1.2.1 (UTC 2008-12-04)

Аудио #1
Идентификатор : 1
Формат : AC-3
Формат/Информация : Audio Coding 3
Расширение режима : CM (complete main)
Параметр Endianness формата : Big
Идентификатор кодека : 2000
Продолжительность : 1 ч. 32 м.
Вид битрейта : Постоянный
Битрейт : 192 Кбит/сек
Каналы : 2 канала
Расположение каналов : Front: L R
Частота : 48,0 КГц
Битовая глубина : 16 бит
Метод сжатия : С потерями
Размер потока : 127 Мбайт (12%)
Выравнивание : Разделение по промежуткам
Продолжительность промежутка : 42 мс. (1,00 видеокадр)
Время предзагрузки промежутка : 500 мс.

Аудио #2
Идентификатор : 2
Формат : AC-3
Формат/Информация : Audio Coding 3
Расширение режима : CM (complete main)
Параметр Endianness формата : Big
Идентификатор кодека : 2000
Продолжительность : 1 ч. 32 м.
Вид битрейта : Постоянный
Битрейт : 192 Кбит/сек
Каналы : 2 канала
Расположение каналов : Front: L R
Частота : 48,0 КГц
Битовая глубина : 16 бит
Метод сжатия : С потерями
Размер потока : 127 Мбайт (12%)
Выравнивание : Разделение по промежуткам
Продолжительность промежутка : 42 мс. (1,00 видеокадр)
Время предзагрузки промежутка : 500 мс.




Страна: Япония
Год выпуска: 2013 г.
Жанр: приключения, фэнтези, драма
Продолжительность: 01:52:39
Режиссер: Кубока Тосиюки

Студия:
Краткое содержание: Длившийся несколько мгновений «Золотой век» Мидланда оборачивается бессмысленным, беспросветным и кажущимся бесконечным Средневековьем. Взлетевшего до небес Гриффита в интересах короны бросают в один из подвалов Башни Возрождения в Виндхейме, где талантливый палач быстро превращает «ястреба» в немую неподвижную куклу. Подчиненные же Гриффита приходят к тому, с чего начинали, – усталой, голодной и находящейся при смерти банде наемников.

Тем временем Гатс в который уже раз сходит с однажды избранного пути. Вернуться к возлюбленной и спасти лучшего друга – вот о чем думает человек, которому еще при рождении из трупа было уготовано всегда жить одиночкой. Но стоит ли вставать на пути судьбы и надвигающегося апокалипсиса, если в итоге лишишься правого глаза, левой руки и привычного окружения? «Стоит», – решает берсерк в попытке спасти хоть кого-то из друзей и пройти до конца Путь Мести.
© Ярослав Гафнер, World Art



Официальный сайт

Качество: BDRip
Тип релиза: Без хардсаба
Формат видео: AVI
Кодек: XviD
Видео: 720x304, 1200 Кбит/сек, 23,976 кадра/сек
Аудио: AC3, 192 Кбит/сек, 48 КГц, 2CH Язык Русский (любительский двухголосный закадровый от SHIZA Project (Nyasheek & Ляля)) ;
Аудио: AC3, 192 Кбит/сек, 48 КГц, 2CH Оригинал ;
Субтитры: SRT, внешние Язык субтитров русский ; Перевод: Anku, shizoidal / Редактор/Оформление: mutagenb
Общее
Полное имя : E:Berserk - Golden Age [BD][HWP]Berserk - Golden Age Chapter III - Advent.avi
Формат : AVI
Формат/Информация : Audio Video Interleave
Размер файла : 1,25 Гбайт
Продолжительность : 1 ч. 52 м.
Общий поток : 1589 Кбит/сек
Программа кодирования : VirtualDubMod 1.5.10.3 | www.virtualdub-fr.org || (build 2550/release)
Библиотека кодирования : VirtualDubMod build 2550/release

Видео
Идентификатор : 0
Формат : MPEG-4 Visual
Профиль формата : Advanced Simple@L5
Параметр BVOP формата : 2
Параметр QPel формата : Нет
Параметр GMC формата : Без точки перехода
Параметр матрицы формата : Default (H.263)
Идентификатор кодека : XVID
Идентификатор кодека/Подсказка : XviD
Продолжительность : 1 ч. 52 м.
Битрейт : 1200 Кбит/сек
Ширина : 720 пикселей
Высота : 304 пикселя
Соотношение сторон : 2,35:1
Частота кадров : 23,976 кадра/сек
Цветовое пространство : YUV
Субдискретизация насыщенности : 4:2:0
Битовая глубина : 8 бит
Тип развёртки : Прогрессивная
Метод сжатия : С потерями
Бит/(Пиксели*Кадры) : 0.229
Размер потока : 967 Мбайт (75%)
Библиотека кодирования : XviD 1.2.1 (UTC 2008-12-04)

Аудио #1
Идентификатор : 1
Формат : AC-3
Формат/Информация : Audio Coding 3
Расширение режима : CM (complete main)
Параметр Endianness формата : Big
Идентификатор кодека : 2000
Продолжительность : 1 ч. 47 м.
Вид битрейта : Постоянный
Битрейт : 192 Кбит/сек
Каналы : 2 канала
Расположение каналов : Front: L R
Частота : 48,0 КГц
Битовая глубина : 16 бит
Метод сжатия : С потерями
Размер потока : 148 Мбайт (12%)
Выравнивание : Разделение по промежуткам
Продолжительность промежутка : 44 мс. (1,05 видеокадр)
Время предзагрузки промежутка : 500 мс.

Аудио #2
Идентификатор : 2
Формат : AC-3
Формат/Информация : Audio Coding 3
Расширение режима : CM (complete main)
Параметр Endianness формата : Big
Идентификатор кодека : 2000
Продолжительность : 1 ч. 52 м.
Вид битрейта : Постоянный
Битрейт : 192 Кбит/сек
Каналы : 2 канала
Расположение каналов : Front: L R
Частота : 48,0 КГц
Битовая глубина : 16 бит
Метод сжатия : С потерями
Размер потока : 155 Мбайт (12%)
Выравнивание : Разделение по промежуткам
Продолжительность промежутка : 42 мс. (1,00 видеокадр)
Время предзагрузки промежутка : 500 мс.




Страна: Япония
Год выпуска: 2013 г.
Жанр: приключения, фэнтези, драма
Продолжительность: 01:47:47
Режиссер: Кубока Тосиюки

Студия:
Краткое содержание:R-18 Director's Cut

Официальный сайт

Качество: BDRip
Тип релиза: Без хардсаба
Формат видео: AVI
Кодек: XviD
Видео: 720x304, 1200 Кбит/сек, 23,976 кадра/сек
Аудио: AC3, 192 Кбит/сек, 48 КГц, 2CH Язык Русский (любительский двухголосный закадровый от SHIZA Project (Nyasheek & Ляля)) ;
Аудио: AC3, 192 Кбит/сек, 48 КГц, 2CH Оригинал ;
Субтитры: SRT, внешние Язык субтитров русский ; Перевод: Keilex
Общее
Полное имя : E:Berserk - Golden Age [BD][HWP]Berserk - Golden Age Chapter III - Advent [Special Version].avi
Формат : AVI
Формат/Информация : Audio Video Interleave
Размер файла : 1,20 Гбайт
Продолжительность : 1 ч. 47 м.
Общий поток : 1598 Кбит/сек
Программа кодирования : VirtualDubMod 1.5.10.3 | www.virtualdub-fr.org || (build 2550/release)
Библиотека кодирования : VirtualDubMod build 2550/release

Видео
Идентификатор : 0
Формат : MPEG-4 Visual
Профиль формата : Advanced Simple@L5
Параметр BVOP формата : 2
Параметр QPel формата : Нет
Параметр GMC формата : Без точки перехода
Параметр матрицы формата : Default (H.263)
Идентификатор кодека : XVID
Идентификатор кодека/Подсказка : XviD
Продолжительность : 1 ч. 47 м.
Битрейт : 1200 Кбит/сек
Ширина : 720 пикселей
Высота : 304 пикселя
Соотношение сторон : 2,35:1
Частота кадров : 23,976 кадра/сек
Цветовое пространство : YUV
Субдискретизация насыщенности : 4:2:0
Битовая глубина : 8 бит
Тип развёртки : Прогрессивная
Метод сжатия : С потерями
Бит/(Пиксели*Кадры) : 0.229
Размер потока : 925 Мбайт (75%)
Библиотека кодирования : XviD 1.2.1 (UTC 2008-12-04)

Аудио #1
Идентификатор : 1
Формат : AC-3
Формат/Информация : Audio Coding 3
Расширение режима : CM (complete main)
Параметр Endianness формата : Big
Идентификатор кодека : 2000
Продолжительность : 1 ч. 47 м.
Вид битрейта : Постоянный
Битрейт : 192 Кбит/сек
Каналы : 2 канала
Расположение каналов : Front: L R
Частота : 48,0 КГц
Битовая глубина : 16 бит
Метод сжатия : С потерями
Размер потока : 148 Мбайт (12%)
Выравнивание : Разделение по промежуткам
Продолжительность промежутка : 42 мс. (1,00 видеокадр)
Время предзагрузки промежутка : 500 мс.

Аудио #2
Идентификатор : 2
Формат : AC-3
Формат/Информация : Audio Coding 3
Расширение режима : CM (complete main)
Параметр Endianness формата : Big
Идентификатор кодека : 2000
Продолжительность : 1 ч. 47 м.
Вид битрейта : Постоянный
Битрейт : 192 Кбит/сек
Каналы : 2 канала
Расположение каналов : Front: L R
Частота : 48,0 КГц
Битовая глубина : 16 бит
Метод сжатия : С потерями
Размер потока : 148 Мбайт (12%)
Выравнивание : Разделение по промежуткам
Продолжительность промежутка : 42 мс. (1,00 видеокадр)
Время предзагрузки промежутка : 500 мс.


С офф сайта:
収録時間:本編113分(R-15版本編)+特典映像/特典CD/特典ディスク(R-18版本編※)


Релиз от:



   Похожие торренты   Торрент   Размер 
В этой теме нет новых непрочитанных сообщений. Берсерк: Золотой век (фильм) / Berserk: Golden Age Arc [movie] [1-3+1 из 3+1] (2012 - 2013) BDRip [Hi10P] от UA MAX |D, L2

80 | 23

8.18 ГБ

В этой теме нет новых непрочитанных сообщений. Берсерк. Золотой век: Фильм III. Сошествие / Berserk: The Golden Age Arc III - Descent (2013) BDRip 1080p от NNNB

197 | 9

5.76 ГБ

В этой теме нет новых непрочитанных сообщений. Берсерк. Золотой век: Фильм III. Сошествие / Berserk Ogon Jidai-Hen III: Korin (2013) BDRip 1080p от UA MAX | D | HD+HWP

94 | 47

3.32 ГБ

В этой теме нет новых непрочитанных сообщений. Берсерк. Золотой век: Фильм III. Сошествие / Berserk Ogon Jidai-Hen III: Korin (2013) BDRip 720p от UA MAX | L2 | Director's Cut

102 | 17

1.3 ГБ

В этой теме нет новых непрочитанных сообщений. Берсерк. Золотой век: Фильм I. Бехерит Властителя / Berserk Ogon Jidai-hen I: Hao no Tamago (2012) BDRip 1080p от Freeisland

80 | 23

4.37 ГБ

В этой теме нет новых непрочитанных сообщений. Берсерк: Золотой век. Фильм 2: Битва за Долдрей / Berserk Ogon Jidai-hen II: Doldrey Koryaku (2012) BDRip 1080p от Freeisland

73 | 7

5.76 ГБ

В этой теме нет новых непрочитанных сообщений. Берсерк: Золотой век. Фильм II. Битва за Долдрей / Berserk Ogon J (2012) BDRip 1080p от Killbrain and Scarabey | Лицензия | Русский видеоряд

193 | 25

3.95 ГБ




Вы не можете начинать темы
Вы не можете отвечать на сообщения
Вы не можете редактировать свои сообщения
Вы не можете удалять свои сообщения
Вы не можете добавлять вложения

Перейти:  
Для Мосгорсуда, Роскомнадзора и рекламодателей: mosgorsud-torrent[собачка]yandex.ru
 Вход
ppkBB3cker v.2 © 2008-2014 @ PPK
[ Time : 0.028s | 15 Queries | GZIP : Off ]

Торрент трекер RUTOR.IN, Не можете зайти на rutor.org? Какой новый адрес рутор? Какое зеркало рутор? Не работает rutor.org и зеркала? Тогда наш торрент специально для вас. Rutor.in неофициальное зеркало rutor. В случае если у Вас заблокирован rutor или вдруг Вы не можете на него зайти, то Вы без труда сможете скачать бесплатно и без рекламы последние новинки кино, игр, сериалов и прочего у нас, на Rutor.in. Не нужно использовать прокси, чтобы зайти на рутор, достаточно воспользоваться нашим ресурсом. Все новые фильмы, игры, сериалы, книги и музыка за 2013 и 2014 годы через торрент бесплатно. Скачивайте фильмы в хорошем качестве, игры для пк, xbox, playstation без регистрации. У нас вы найдете новые Зарубежные сериалы и Русские сериалы 2013, 2014, 2015 годов. Оставайтесь с нами, качайте любимые фильмы, игры, сериалы, книги и музыку.