img image001 image001 image001 image001 image001 image001 image001 image001 image001 image001 image001 image001 image001 image001 image001

Planets Sun Sun Sun
Статистика раздачи
Автор: PriZraK | Размер: 8.66 ГБ | Добавлен: 15 фев 2014, 12:06
Раздают: 1517    Качают: 264
Скачать торрент
Скачать торрент
Описание торрента

СообщениеДобавлено: 15 фев 2014, 12:06 


Информация о фильме
Название: Хеллсинг
Оригинальное название: Hellsing Ultimate
Год выхода: 2006-2012
Жанр: приключения, мистика, драма
Режиссер: Токоро Томокадзу

Наката Дзёдзи / Nakata Jouji — Алукард
Орикаса Фумико / Orikasa Fumiko — Виктория Серас
Сакакибара Ёсико / Sakakibara Yoshiko — Интегра Хеллсинг
Киёкава Мотому / Kiyokawa Motomu — Уолтер
Вакамото Норио / Wakamoto Norio — Александр Андерсон
Тобита Нобуо / Tobita Nobuo — Майор (штурмбанфюрер СС)
Оцука Тикао / Ohtsuka Chikao — Сэр Артур Хеллсинг
Акимото Ёсукэ / Akimoto Yousuke — Ричард Хеллсинг
Мидзухаси Каори / Mizuhashi Kaori — Интегра в юности
Наката Кадзухиро / Nakata Kazuhiro — Пастор-вампир
Хияма Нобуюки / Hiyama Nobuyuki — Хаггер
Такахаси Тиаки / Takahashi Chiaki — Джессика
Сака Осаму / Saka Osamu — Св. отец Рональдо
Имаруока Ацуси / Imaruoka Atsushi — Полицейский Саймон
Кусида Ясумити / Kushida Yasumichi — Полицейский Эдди
Хирата Хироаки / Hirata Hiroaki — Пип Бернадотт
Нака Хироси / Naka Hiroshi — Док
Оцука Хотю / Ohtsuka Houchu — Тубалкейн Альгамбра
Хори Кацуносукэ / Hori Katsunosuke — Сэр Хью Айлендз
Хиросэ Масаси / Hirose Masashi— Сэр Шелби Пенвуд
Хаями Сё / Hayami Sho — Энрико Максвелл
Коясу Такэхито / Koyasu Takehito — Люк Валентайн
Такаги Ватару / Takagi Wataru — Ян Валентайн
Исидзука Унсё / Ishizuka Unshou — Дух Харконнена

О фильме:
На каждое действие найдётся противодействие – для борьбы с кровожадной нечистью в Великобритании был создан Королевский Орден Протестантских Рыцарей, которому служит древнейший вампир Алукард. Согласно заключённому договору, он подчиняется главе тайной организации «Хеллсинг».

У Ватикана свой козырь – особый Тринадцатый Отдел, организация «Искариот», в составе которой неубиваемый отец Александр. Для них Алукард ничем не отличается от остальных монстров.

Однако всем им придётся на время забыть о дрязгах между католической и англиканской церквями, когда на сцену выйдет могущественный враг из прошлого – загадочный Майор во главе секретной нацистской организации «Миллениум».

Но пока не началась битва за Англию, Алукард занят воспитанием новообращённой вампирши: Виктория Серас раньше служила в полиции, а теперь ей приходится привыкать к жизни в старинном особняке, к своим новым способностям и новым обязанностям. Даже хозяйка Алукарда, леди Интегра, не знает, зачем он обратил эту упрямую девушку...

Вторая экранизация манги Хирано Кота дотошно следует оригиналу, и потому заметно отличается от сериала, ведь именно чёрный юмор, реки крови, харизматичные враги и закрученный конфликт сделали «Хеллсинга» всемирно популярным.

© Расселл Д. Джонс, World Art



Страна: Япония
Студия: Satelight
Продолжительность: 10 эп. ~50 мин
Перевод:
Русский - профессиональный многоголосый, закадровый от студии Омикрон
Субтитры - перевод и редактура от [wip & Dusker]

Файл
Кодек: x264 [Hi10p]
Качество: BDRip 720p
Видео: 1280x720 , ~1300 Kbps, 23.976 fps
Звук:
Rus - AC3, 224 Kbps, 48,0 KHz, 5.1 CH
Jpn - AC3, 224 Kbps, 48,0 KHz, 5.1 CH
Субтитры: Rus - ASS, встроенные/отключаемые
Общее
Уникальный идентификатор : 180489182216619570742016850680015825348 (0x87C8F3BAA7F267E7A333ECBF13A929C4)
Полное имя : C:AnimeHellsing Ultimate [OVA]Hellsing Ultimate ~01~ [OVA].mkv
Формат : Matroska
Версия формата : Version 4 / Version 2
Размер файла : 662 Мбайт
Продолжительность : 50 м.
Общий поток : 1839 Кбит/сек
Дата кодирования : UTC 2014-01-06 18:43:19
Программа кодирования : mkvmerge v6.1.0 ('Old Devil') built on Mar 4 2013 09:10:42
Библиотека кодирования : libebml v1.3.0 + libmatroska v1.4.0
Attachment : Yes

Видео
Идентификатор : 1
Формат : AVC
Формат/Информация : Advanced Video Codec
Профиль формата : High 10@L5.1
Параметр CABAC формата : Да
Параметр ReFrames формата : 16 кадров
Идентификатор кодека : V_MPEG4/ISO/AVC
Продолжительность : 50 м.
Битрейт : 1354 Кбит/сек
Ширина : 1280 пикселей
Высота : 720 пикселей
Соотношение сторон : 16:9
Режим частоты кадров : Постоянный
Частота кадров : 23,976 кадра/сек
Цветовое пространство : YUV
Субдискретизация насыщенности : 4:2:0
Битовая глубина : 10 бит
Тип развёртки : Прогрессивная
Бит/(Пиксели*Кадры) : 0.061
Размер потока : 487 Мбайт (74%)
Заголовок : Hellsing I
Библиотека кодирования : x264 core 122 r2184 5c85e0a
Настройки программы : cabac=1 / ref=16 / deblock=1:0:0 / analyse=0x3:0x113 / me=umh / subme=10 / psy=1 / psy_rd=1.00:0.00 / mixed_ref=1 / me_range=32 / chroma_me=1 / trellis=2 / 8x8dct=1 / cqm=0 / deadzone=21,11 / fast_pskip=0 / chroma_qp_offset=-2 / threads=12 / sliced_threads=0 / nr=0 / decimate=1 / interlaced=0 / bluray_compat=0 / constrained_intra=0 / bframes=12 / b_pyramid=2 / b_adapt=2 / b_bias=0 / direct=1 / weightb=1 / open_gop=0 / weightp=2 / keyint=240 / keyint_min=23 / scenecut=40 / intra_refresh=0 / rc_lookahead=50 / rc=crf / mbtree=1 / crf=17.0 / qcomp=0.60 / qpmin=0 / qpmax=81 / qpstep=4 / ip_ratio=1.40 / aq=1:1.00
Язык : Japanese
Default : Да
Forced : Да

Аудио #1
Идентификатор : 2
Формат : AC-3
Формат/Информация : Audio Coding 3
Расширение режима : CM (complete main)
Параметр Endianness формата : Big
Идентификатор кодека : A_AC3
Продолжительность : 50 м.
Вид битрейта : Постоянный
Битрейт : 224 Кбит/сек
Каналы : 6 каналов
Расположение каналов : Front: L C R, Side: L R, LFE
Частота : 48,0 КГц
Битовая глубина : 16 бит
Метод сжатия : С потерями
Размер потока : 80,6 Мбайт (12%)
Заголовок : 5.1 - [Омикрон]
Язык : Russian
Default : Да
Forced : Да

Аудио #2
Идентификатор : 3
Формат : AC-3
Формат/Информация : Audio Coding 3
Расширение режима : CM (complete main)
Параметр Endianness формата : Big
Идентификатор кодека : A_AC3
Продолжительность : 50 м.
Вид битрейта : Постоянный
Битрейт : 224 Кбит/сек
Каналы : 6 каналов
Расположение каналов : Front: L C R, Side: L R, LFE
Частота : 48,0 КГц
Битовая глубина : 16 бит
Метод сжатия : С потерями
Размер потока : 80,6 Мбайт (12%)
Заголовок : 5.1 - [Original]
Язык : Japanese
Default : Нет
Forced : Нет

Текст
Идентификатор : 4
Формат : ASS
Идентификатор кодека : S_TEXT/ASS
Идентификатор кодека/Информация : Advanced Sub Station Alpha
Метод сжатия : Без потерь
Заголовок : [wip & Dusker]
Язык : Russian
Default : Нет
Forced : Нет

Релиз от:



   Похожие торренты   Торрент   Размер 
В этой теме нет новых непрочитанных сообщений. Хеллсинг OVA 1 / Hellsing Ultimate OVA 1 (2006) DVDRip

1 | 4

706.95 МБ

В этой теме нет новых непрочитанных сообщений. Хеллсинг ОВА / Hellsing Ultimate [OVA] [10 из 10] (2006) BDRemux 1080p | Sub

22 | 32

96.02 ГБ

В этой теме нет новых непрочитанных сообщений. Хеллсинг OVA / Hellsing Ultimate OVA [7 из 7] (2006-2009) DVDRip

40 | 9

4.17 ГБ

В этой теме нет новых непрочитанных сообщений. OST - Хеллсинг / Hellsing / Hellsing Ultimate (2001-2010) MP3

62 | 60

860.21 МБ

В этой теме нет новых непрочитанных сообщений. Хеллсинг OVA 7 / Hellsing Ultimate OVA 7 (2009) DVDRip

2 | 12

843.91 МБ

В этой теме нет новых непрочитанных сообщений. Хеллсинг / Hellsing [13 из 13] (2001) DVDRip

226 | 7

1.41 ГБ

В этой теме нет новых непрочитанных сообщений. Хеллсинг: Война с нечистью / Hellsing (2001) DVDRip

139 | 6

1.28 ГБ




Вы не можете начинать темы
Вы не можете отвечать на сообщения
Вы не можете редактировать свои сообщения
Вы не можете удалять свои сообщения
Вы не можете добавлять вложения

Перейти:  
Для Мосгорсуда, Роскомнадзора и рекламодателей: mosgorsud-torrent[собачка]yandex.ru
Настройки
ppkBB3cker v.2 © 2008-2014 @ PPK
[ Time : 0.053s | 15 Queries | GZIP : Off ]
CGP [Extreme] output time : 0.00019s | 0 Queries | GZIP : Off

Торрент трекер RUTOR.IN, Не можете зайти на rutor.org? Какой новый адрес рутор? Какое зеркало рутор? Не работает rutor.org и зеркала? Тогда наш торрент специально для вас. Rutor.in неофициальное зеркало rutor. В случае если у Вас заблокирован rutor или вдруг Вы не можете на него зайти, то Вы без труда сможете скачать бесплатно и без рекламы последние новинки кино, игр, сериалов и прочего у нас, на Rutor.in. Не нужно использовать прокси, чтобы зайти на рутор, достаточно воспользоваться нашим ресурсом. Все новые фильмы, игры, сериалы, книги и музыка за 2013 и 2014 годы через торрент бесплатно. Скачивайте фильмы в хорошем качестве, игры для пк, xbox, playstation без регистрации. У нас вы найдете новые Зарубежные сериалы и Русские сериалы 2013, 2014, 2015 годов. Оставайтесь с нами, качайте любимые фильмы, игры, сериалы, книги и музыку.