img image001 image001 image001 image001 image001 image001 image001 image001 image001 image001 image001 image001 image001 image001 image001

Planets Sun Sun Sun
Статистика раздачи
Автор: PriZraK | Размер: 9.12 ГБ | Добавлен: 15 фев 2014
Раздают: 17    Качают: 18
Скачать торрент
Скачать торрент
Описание торрента

СообщениеДобавлено: 15 фев 2014 

Страна: Япония
Год выпуска: 2013 г.
Жанр: приключения, фэнтези, сёнэн
Тип: TV
Продолжительность: ТВ (>12 эп.), 25 мин.
Режиссер: Хамана Такаюки
Студия:

Описание:
В очередном альтернативном Эдо людям не дают житья насекомые. Да не простые клопы с тараканами, а гигантские демонические жучары с пауками, которым человека перекусить – что нам спичку сломать. Для защиты города по просьбе жителей сегунат Токугава создал Жучиный приказ, чьи бойцы неустанно истребляют членистоногую нечисть с помощью верных мечей, взрывчатки и Великой Матери, то есть, разумеется, богини Аматэрасу. Работа дезинсектора опасна и трудна, потому в отряде быстрого реагирования собрались весьма нестандартные личности – от матерых убийц и суровых воинов до молодых куноити и магов-оммёдзи.
И вот в отряд вступает 16-летний Дзимбэй Цукисима, сын мастера фехтования из провинции Цугару. Дзинбэй занял место раненого отца, и его главное желание – не посрамить честь рода и фамильной школы. Конечно же, деревенскому пареньку непросто пришлось в столице, где ничего не понятно сразу, при этом интриги крутят все – от заговорщиков и бандитов-Охотников до собственного начальства. Только слова словами, замыслы замыслами, а в конечном счете решают горячее сердце, твердая рука и воля крепче стали! Немного любви, магии и героев Сэнгоку Дзидай тоже не помешают, и вообще, как говорил автор «Сокрытого в листве»: все в этом мире — всего лишь кукольное представление!

© Hollow, World Art

Доп. информация:

Релиз GSGroup

Качество: HDTVRip
Тип релиза: Без хардсаба
Формат видео: MKV
Наличие линковки: Нет
Видео: x264, 1280x720, 1776 Кбит/сек, 23,976 кадра/сек, 8 бит
Аудио 1: AC3, 2 канала, 48 KHz, 192 kbps Язык Русский (в составе контейнера) ; Озвучка: Persona99
Аудио 2: AC3, 2 канала, 48 KHz, 192 kbps Язык Японский ; Озвучка 2: оригинал
Субтитры: srt внешние, ass встроенные Язык субтитров русский ; Перевод: fynnley; Eng. soft в составе контейнера, HorribleSubs
Код:
Общее
Уникальный идентификатор                 : 210941868982589325844323730903152842052 (0x9EB1ED1B6F12BF4AAA36498A690DD544)
Полное имя                               : Mushibugyo TV/1_Mushibugyo_[Persona99](1280x720.x264.AC3).rus.jap.mkv
Формат                                   : Matroska
Версия формата                           : Version 2
Размер файла                             : 359 Мбайт
Продолжительность                        : 23 м.
Общий поток                              : 2157 Кбит/сек
Дата кодирования                         : UTC 2013-04-09 13:51:22
Программа кодирования                    : mkvmerge v3.2.0 ('Beginnings') built on Feb 12 2010 16:46:17
Библиотека кодирования                   : libebml v0.7.9 + libmatroska v0.8.1
Attachment                               : Yes

Видео
Идентификатор                            : 1
Формат                                   : AVC
Формат/Информация                        : Advanced Video Codec
Профиль формата                          : High@L4.0
Параметр CABAC формата                   : Да
Параметр ReFrames формата                : 6 кадров
Идентификатор кодека                     : V_MPEG4/ISO/AVC
Продолжительность                        : 23 м.
Битрейт                                  : 1776 Кбит/сек
Ширина                                   : 1280 пикселей
Высота                                   : 720 пикселей
Соотношение сторон                       : 16:9
Режим частоты кадров                     : Постоянный
Частота кадров                           : 23,976 кадра/сек
Цветовое пространство                    : YUV
Субдискретизация насыщенности            : 4:2:0
Битовая глубина                          : 8 бит
Тип развёртки                            : Прогрессивная
Бит/(Пиксели*Кадры)                      : 0.080
Размер потока                            : 288 Мбайт (80%)
Библиотека кодирования                   : x264 core 120 r2120 0c7dab9
Настройки программы                      : cabac=1 / ref=6 / deblock=1:1:1 /
analyse=0x3:0x113 / me=umh / subme=8 / psy=1 / psy_rd=0.40:0.00 /
mixed_ref=1 / me_range=16 / chroma_me=1 / trellis=1 / 8x8dct=1 / cqm=0
 / deadzone=21,11 / fast_pskip=1 / chroma_qp_offset=-2 / threads=4 / sliced_threads=0 / nr=0 / decimate=1 / interlaced=0 / bluray_compat=0 /
constrained_intra=0 / bframes=3 / b_pyramid=2 / b_adapt=2 / b_bias=0 /
direct=3 / weightb=1 / open_gop=0 / weightp=2 / keyint=250 /
keyint_min=23 / scenecut=40 / intra_refresh=0 / rc_lookahead=50 /
rc=2pass / mbtree=1 / bitrate=1776 / ratetol=1.0 / qcomp=0.60 / qpmin=0 /
 qpmax=69 / qpstep=4 / cplxblur=20.0 / qblur=0.5 / vbv_maxrate=3552 /
vbv_bufsize=8880 / nal_hrd=none / ip_ratio=1.40 / aq=1:0.60

Default                                  : Нет
Forced                                   : Нет

Аудио #1
Идентификатор                            : 2
Формат                                   : AC-3
Формат/Информация                        : Audio Coding 3
Расширение режима                        : CM (complete main)
Параметр Endianness формата              : Big
Идентификатор кодека                     : A_AC3
Продолжительность                        : 23 м.
Вид битрейта                             : Постоянный
Битрейт                                  : 192 Кбит/сек
Каналы                                   : 2 канала
Расположение каналов                     : Front: L R
Частота                                  : 48,0 КГц
Битовая глубина                          : 16 бит
Метод сжатия                             : С потерями
Размер потока                            : 32,0 Мбайт (9%)
Заголовок                                : Persona99
Язык                                     : Russian
Default                                  : Да
Forced                                   : Нет

Аудио #2
Идентификатор                            : 3
Формат                                   : AC-3
Формат/Информация                        : Audio Coding 3
Расширение режима                        : CM (complete main)
Параметр Endianness формата              : Big
Идентификатор кодека                     : A_AC3
Продолжительность                        : 23 м.
Вид битрейта                             : Постоянный
Битрейт                                  : 192 Кбит/сек
Каналы                                   : 2 канала
Расположение каналов                     : Front: L R
Частота                                  : 48,0 КГц
Битовая глубина                          : 16 бит
Метод сжатия                             : С потерями
Размер потока                            : 32,0 Мбайт (9%)
Язык                                     : Japanese
Default                                  : Нет
Forced                                   : Нет

Текст #1
Идентификатор                            : 4
Формат                                   : ASS
Идентификатор кодека                     : S_TEXT/ASS
Идентификатор кодека/Информация          : Advanced Sub Station Alpha
Метод сжатия                             : Без потерь
Заголовок                                : [fynnley] ass
Язык                                     : Russian
Default                                  : Нет
Forced                                   : Нет

Текст #2
Идентификатор                            : 5
Формат                                   : ASS
Идентификатор кодека                     : S_TEXT/ASS
Идентификатор кодека/Информация          : Advanced Sub Station Alpha
Метод сжатия                             : Без потерь
Язык                                     : English
Default                                  : Нет
Forced                                   : Нет

01. Here Comes Tsukishima Jinbei!
02. My Rival Is Female Ninja, Hibachi!
03. The Killer of 99, Koikawa Shungiku!
04. Ichinotani Tenma, I Can Do It!
05. Mugai: What Solitary Eyes See
07. Summer War in Edo!!
08. Mitsuki`s Honey Trap
09. The Insect Hunters Attack!! Battle of Hachijo Island!!
10. Kuroageha Arrives
11. Jinbei`s Power Awakens!!
12. Training With Father! The Thirty-six Blades of Fuji!!
13. We`ll Show You Everything!! The Edo Women`s Baths!!
14. Insect!? Man!? A Mysterious Enemy Attacks!
15. To Kishuu! The Ten Crucifix Insects of Sanada Appear!
16. The Cool Guy in Glasses Lectures on Right and Wrong
17. Sanada Yukimura`s Trap! Caught in a Net!!
18. Time`s Up! The Insect Magistrate`s Office Arrives!
19. He Shed His Skin!? The Insect-men`s True Form!!
20. Dream of the Butterfly
21. The Compassion Slash That Cuts G!!
22. Who Is Righteous!? Tenma and Justice
23. My Life`s Greatest Task
24. The Insect Magistrate`s Cursed Past
25. The Promise Is Hope Within Despair
26. Tsukishima Jinbei Is Here!!!



Семпл: http://yadi.sk/d/gXetuNkJ3vM5G




   Похожие торренты   Торрент   Размер 
В этой теме нет новых непрочитанных сообщений. Охотники на насекомых / Mushibugyou [TV] [01-09 из 26] (2013) HDTVRip 720p | Persona99

0 | 2

3.16 ГБ

В этой теме нет новых непрочитанных сообщений. Истребители насекомых / Mushibugyou [01-26 из 26] (2013) HDTV 720p | L2

30 | 7

8.3 ГБ

В этой теме нет новых непрочитанных сообщений. Истребители насекомых / Mushibugyou [01-17 из 26] (2013) HDTV 720p | L2

1 | 2

5.43 ГБ

В этой теме нет новых непрочитанных сообщений. Ван-Пис / One Piece [601-700] (2013-2015) HDTVRip 720p | Persona99

4 | 27

40.22 ГБ

В этой теме нет новых непрочитанных сообщений. Войны насекомых / Insect wars (2006) HDTVRip от RP4 CHG

0 | 1

394.75 МБ

В этой теме нет новых непрочитанных сообщений. Заморозка 2 [ТВ] / Freezing Vibration [01-04] (2013) HDTVRip 720 | Persona99

2 | 12

2.17 ГБ

В этой теме нет новых непрочитанных сообщений. Наследие Галилео / Galilei Donna [TV] [11 из 11] (2013) HDTVRip | Persona99

123 | 13

3.06 ГБ




Вы не можете начинать темы
Вы не можете отвечать на сообщения
Вы не можете редактировать свои сообщения
Вы не можете удалять свои сообщения
Вы не можете добавлять вложения

Перейти:  
Для Мосгорсуда, Роскомнадзора и рекламодателей: mosgorsud-torrent[собачка]yandex.ru
 Вход
ppkBB3cker v.2 © 2008-2014 @ PPK
[ Time : 0.028s | 15 Queries | GZIP : Off ]

Торрент трекер RUTOR.IN, Не можете зайти на rutor.org? Какой новый адрес рутор? Какое зеркало рутор? Не работает rutor.org и зеркала? Тогда наш торрент специально для вас. Rutor.in неофициальное зеркало rutor. В случае если у Вас заблокирован rutor или вдруг Вы не можете на него зайти, то Вы без труда сможете скачать бесплатно и без рекламы последние новинки кино, игр, сериалов и прочего у нас, на Rutor.in. Не нужно использовать прокси, чтобы зайти на рутор, достаточно воспользоваться нашим ресурсом. Все новые фильмы, игры, сериалы, книги и музыка за 2013 и 2014 годы через торрент бесплатно. Скачивайте фильмы в хорошем качестве, игры для пк, xbox, playstation без регистрации. У нас вы найдете новые Зарубежные сериалы и Русские сериалы 2013, 2014, 2015 годов. Оставайтесь с нами, качайте любимые фильмы, игры, сериалы, книги и музыку.