img image001 image001 image001 image001 image001 image001 image001 image001 image001 image001 image001 image001 image001 image001 image001

Planets Sun Sun Sun
Статистика раздачи
Автор: PriZraK | Размер: 606.13 МБ | Добавлен: 15 фев 2014
Раздают: 12    Качают: 5
Скачать торрент
Скачать торрент
Описание торрента

СообщениеДобавлено: 15 фев 2014 

Информация о фильме
Название: Магические войны
Оригинальное название: Mahou Sensou / Magical Warfare
Год выхода: 2014
Жанр: сёнен, школа, приключения, фентези
Режиссер: Сато Юдзо

О фильме:
Такещи Нанасэ обычный старшеклассник с темным прошлым. Фиктивно он встречается с его подругой детства Куруми Исосимой, а так, он живет вполне нормальной жизнью. Однажды он повстречал девушку по имени Муи Айба, на территории его школы в незнакомой ему школьной форме. Муи говорит Такещи, что она - маг, и просит прощение за то, что превратила и его в мага. И вот то, что когда-то Такэси знал, как единый мир, оказалось миром двух параллелей: мир - в котором живут маги, и мир - в котором живут люди.
Страна: Япония
Студия: Madhouse Studios
Продолжительность: 12 эп, ~24 мин. серия
Перевод: Rus - любительский двухголосный закадровый от [UA MAX]

Файл
Кодек: h.264 [8bit]
Качество: HDTVRip 720p
Видео: 1280x720, ~1400 Kbps, 23.976 fps
Звук: AC3, 192 kbps, 48000Hz, 2 ch - (муж./жен.) Ray & Sonata
Код:
Общее
Полное имя                               : E:OngoinsMahou Sensou [2014] ~Magical Warfare~Mahou Sensou - 01.mp4
Формат                                   : MPEG-4
Профиль формата                          : Base Media
Идентификатор кодека                     : isom
Размер файла                             : 324 Мбайт
Продолжительность                        : 24 м.
Общий поток                              : 1851 Кбит/сек
Название фильма                          : Mahou Sensou - 01
Тип содержимого                          : Movie
Дата кодирования                         : UTC 2014-01-21 09:40:29
Дата пометки                             : UTC 2014-01-21 09:40:58
Программа кодирования                    : MkvToMp4 [www.mkvtomp4.ru] version: 0.224 (x64)
HDVideo                                  : Yes

Видео
Идентификатор                            : 1
Формат                                   : AVC
Формат/Информация                        : Advanced Video Codec
Профиль формата                          : High@L4.1
Параметр CABAC формата                   : Да
Параметр ReFrames формата                : 4 кадра
Идентификатор кодека                     : avc1
Идентификатор кодека/Информация          : Advanced Video Coding
Продолжительность                        : 24 м.
Битрейт                                  : 1654 Кбит/сек
Максимальный битрейт                     : 8233 Кбит/сек
Ширина                                   : 1280 пикселей
Высота                                   : 720 пикселей
Соотношение сторон                       : 16:9
Режим частоты кадров                     : Постоянный
Частота кадров                           : 23,976 кадра/сек
Цветовое пространство                    : YUV
Субдискретизация насыщенности            : 4:2:0
Битовая глубина                          : 8 бит
Тип развёртки                            : Прогрессивная
Бит/(Пиксели*Кадры)                      : 0.075
Размер потока                            : 290 Мбайт (89%)
Библиотека кодирования                   : x264 core 129 r2245+729M 1a52e03
Настройки программы                      : cabac=1 / ref=4 / deblock=1:1:-1 / analyse=0x3:0x113 / me=umh / subme=9 / psy=1 / fade_compensate=0.00 / psy_rd=1.00:0.00 / mixed_ref=1 / me_range=24 / chroma_me=1 / trellis=2 / 8x8dct=1 / cqm=0 / deadzone=21,11 / fast_pskip=1 / chroma_qp_offset=-2 / threads=8 / lookahead_threads=1 / sliced_threads=0 / nr=0 / decimate=1 / interlaced=0 / bluray_compat=0 / constrained_intra=0 / fgo=0 / bframes=9 / b_pyramid=2 / b_adapt=2 / b_bias=0 / direct=1 / weightb=1 / open_gop=0 / weightp=2 / keyint=240 / keyint_min=24 / scenecut=40 / intra_refresh=0 / rc=crf / mbtree=0 / crf=19.0 / qcomp=0.72 / qpmin=0 / qpmax=69 / qpstep=4 / ip_ratio=1.40 / pb_ratio=1.30 / aq=1:0.85
Язык                                     : English
Дата кодирования                         : UTC 2014-01-21 09:40:29
Дата пометки                             : UTC 2014-01-21 09:40:45
Основные цвета                           : BT.709
Характеристики трансфера                 : BT.709
Коэффициенты матрицы                     : BT.709

Аудио
Идентификатор                            : 2
Формат                                   : AC-3
Формат/Информация                        : Audio Coding 3
Расширение режима                        : CM (complete main)
Параметр Endianness формата              : Big
Идентификатор кодека                     : ac-3
Продолжительность                        : 24 м.
Вид битрейта                             : Постоянный
Битрейт                                  : 192 Кбит/сек
Каналы                                   : 2 канала
Расположение каналов                     : Front: L R
Частота                                  : 48,0 КГц
Битовая глубина                          : 16 бит
Метод сжатия                             : С потерями
Размер потока                            : 33,6 Мбайт (10%)
Язык                                     : English
Дата кодирования                         : UTC 2014-01-21 09:40:43
Дата пометки                             : UTC 2014-01-21 09:40:45


Релиз от:



   Похожие торренты   Торрент   Размер 
В этой теме нет новых непрочитанных сообщений. Война Магов / Mahou Sensou [01 из 12] (2014) HDTVRip 720p

4 | 2

362.78 МБ

В этой теме нет новых непрочитанных сообщений. Война Магов / Mahou Sensou [01-03 из 12] (2014) HDTVRip 720p

3 | 3

1000.53 МБ

В этой теме нет новых непрочитанных сообщений. Война Магов / Mahou Sensou [01-12 из 12] (2014) HDTVRip 720p | Anidub

131 | 44

3.96 ГБ

В этой теме нет новых непрочитанных сообщений. Войны Девочек Волшебниц / Mahou Shoujo Taisen [Оноги Аяно] [TV-1] [26 из 26] [RAW] [RUS(int)] [2014 г., комедия, махо-сёдзё, HDTVRip] [720p]

1 | 4

5.23 ГБ

В этой теме нет новых непрочитанных сообщений. Маги в законе / Магические Адвокаты / Wizard Barristers: Benmashi Cecil [TV] [01-12 из 12] (2014) HDTVRip 720p | LE-Production

118 | 53

4.33 ГБ

В этой теме нет новых непрочитанных сообщений. Маги в законе / Магические Адвокаты / Wizard Barristers: Benmashi Cecil [TV] [01-08 из 12] (2014) HDTVRip 720p | LE-Production

38 | 33

3 ГБ

В этой теме нет новых непрочитанных сообщений. Маги в законе / Магические Адвокаты / Wizard Barristers: Benmashi Cecil [TV] [01-10 из 12] (2014) HDTVRip 720p | LE-Production

17 | 18

3.62 ГБ




Вы не можете начинать темы
Вы не можете отвечать на сообщения
Вы не можете редактировать свои сообщения
Вы не можете удалять свои сообщения
Вы не можете добавлять вложения

Перейти:  
Для Мосгорсуда, Роскомнадзора и рекламодателей: mosgorsud-torrent[собачка]yandex.ru
 Вход
ppkBB3cker v.2 © 2008-2014 @ PPK
[ Time : 0.535s | 15 Queries | GZIP : Off ]

Торрент трекер RUTOR.IN, Не можете зайти на rutor.org? Какой новый адрес рутор? Какое зеркало рутор? Не работает rutor.org и зеркала? Тогда наш торрент специально для вас. Rutor.in неофициальное зеркало rutor. В случае если у Вас заблокирован rutor или вдруг Вы не можете на него зайти, то Вы без труда сможете скачать бесплатно и без рекламы последние новинки кино, игр, сериалов и прочего у нас, на Rutor.in. Не нужно использовать прокси, чтобы зайти на рутор, достаточно воспользоваться нашим ресурсом. Все новые фильмы, игры, сериалы, книги и музыка за 2013 и 2014 годы через торрент бесплатно. Скачивайте фильмы в хорошем качестве, игры для пк, xbox, playstation без регистрации. У нас вы найдете новые Зарубежные сериалы и Русские сериалы 2013, 2014, 2015 годов. Оставайтесь с нами, качайте любимые фильмы, игры, сериалы, книги и музыку.