img image001 image001 image001 image001 image001 image001 image001 image001 image001 image001 image001 image001 image001 image001 image001

Planets Sun Sun Sun
Статистика раздачи
Автор: PriZraK | Размер: 2.87 ГБ | Добавлен: 15 фев 2014
Раздают: 285    Качают: 16
Скачать торрент
Скачать торрент
Описание торрента

СообщениеДобавлено: 15 фев 2014 

Информация о фильме
Название: Ловцы забытых голосов
Оригинальное название: Hoshi o Ou Kodomo / Children Who Chase Lost Voices from Deep Below
Год выхода: 2011
Жанр: Приключения, фэнтези, романтика
Режиссер: Макото Синкай
В ролях: Хилари Хааг, Кори Хартзог, Леральдо Анцальдуа, Дэвид Матранга, Шелли Карлин-Блэк, Шеннон Эмерик, Сэм Роман, Эмили Невез, Бриттни Карбовски, Джордж Мэнли, Калоб Мартинез, Эндрю Лав, Джастин Доран, Казухиро Фудзивара, Кэндзи Хамада, Рина Хидака, Такаси Хондо, Ютаро Хондзе, Аи Хоранаи, Сая Хоригоме

О фильме:Фильм рассказывает о девушке по имени Асуна, коротающей дни за прослушиванием таинственной музыки, исходящей из кристалла, доставшегося ей в память об отце. Девушка решает отправиться в путешествие, чтобы встретить друга, которого она давно не видела.



Страна: Япония
Студия: CoMix Wave Inc., Media Factory
Продолжительность: 01:56:00
Перевод: Дублированный + профессиональный многоголосый + любительский многоголосый + любительский одноголосый + оригинал

Файл
Кодек: MPEG-4 AVC
Качество: BDRip-AVC
Видео: 1300 Кбит/с, 1024х576, 23.976 кадр/с
Звук:
Аудио #1: Русский (AC3, 6 ch, 448 Кбит/с) / Дублированный (Reanimedia)
Аудио #2: Русский (AC3, 6 ch, 448 Кбит/с) / Профессиональный многоголосый (Омикрон)
Аудио #3: Русский (AC3, 6 ch, 448 Кбит/с) / Любительский многоголосый (Animedia)
Аудио #4: Русский (AC3, 6 ch, 448 Кбит/с) / Любительский одноголосый (loster01)
Аудио #5: Японский (AC3, 6 ch, 448 Кбит/с)
Субтитры: Русские (Reanimedia, Advantage), английские

Семпл

Общее
Уникальный идентификатор : 249826228671477554612411700176135110814 (0xBBF2C80E5D1D91A591C2CAAF06CFC09E)
Полное имя : F:3Films FРелизыLovcy.zabytyh.golosov.2011.x264.BDRip.AVC.MediaClub.mkv
Формат : Matroska
Версия формата : Version 4 / Version 2
Размер файла : 2,87 Гбайт
Продолжительность : 1 ч. 56 м.
Общий поток : 3539 Кбит/сек
Название фильма : -= MediaClub =- rip by Lefevr
Дата кодирования : UTC 2014-01-19 11:34:22
Программа кодирования : mkvmerge v6.6.0 ('The Edge Of The In Between') built on Dec 1 2013 17:55:00
Библиотека кодирования : libebml v1.3.0 + libmatroska v1.4.1

Видео
Идентификатор : 1
Формат : AVC
Формат/Информация : Advanced Video Codec
Профиль формата : High@L4.1
Параметр CABAC формата : Да
Параметр ReFrames формата : 9 кадров
Идентификатор кодека : V_MPEG4/ISO/AVC
Продолжительность : 1 ч. 56 м.
Битрейт : 1229 Кбит/сек
Номинальный битрейт : 1300 Кбит/сек
Ширина : 1024 пикселя
Высота : 576 пикселей
Соотношение сторон : 16:9
Режим частоты кадров : Постоянный
Частота кадров : 23,976 кадра/сек
Цветовое пространство : YUV
Субдискретизация насыщенности : 4:2:0
Битовая глубина : 8 бит
Тип развёртки : Прогрессивная
Бит/(Пиксели*Кадры) : 0.087
Размер потока : 1021 Мбайт (35%)
Заголовок : Lovcy.zabytyh.golosov.2011.x264.BDRip.AVC.MediaClub
Библиотека кодирования : x264 core 130 r2273 b3065e6
Настройки программы : cabac=1 / ref=9 / deblock=1:-2:-2 / analyse=0x3:0x133 / me=umh / subme=11 / psy=1 / psy_rd=1.00:0.15 / mixed_ref=1 / me_range=32 / chroma_me=1 / trellis=2 / 8x8dct=1 / cqm=0 / deadzone=21,11 / fast_pskip=0 / chroma_qp_offset=-3 / threads=6 / lookahead_threads=1 / sliced_threads=0 / nr=0 / decimate=0 / interlaced=0 / bluray_compat=0 / constrained_intra=0 / bframes=8 / b_pyramid=2 / b_adapt=2 / b_bias=0 / direct=3 / weightb=1 / open_gop=0 / weightp=2 / keyint=240 / keyint_min=23 / scenecut=40 / intra_refresh=0 / rc=2pass / mbtree=0 / bitrate=1300 / ratetol=1.0 / qcomp=0.60 / qpmin=0 / qpmax=69 / qpstep=4 / cplxblur=20.0 / qblur=0.5 / ip_ratio=1.40 / pb_ratio=1.30 / aq=1:1.00
Язык : Japanese
Default : Да
Forced : Нет

Аудио #1
Идентификатор : 2
Формат : AC-3
Формат/Информация : Audio Coding 3
Расширение режима : CM (complete main)
Параметр Endianness формата : Big
Идентификатор кодека : A_AC3
Продолжительность : 1 ч. 56 м.
Вид битрейта : Постоянный
Битрейт : 448 Кбит/сек
Каналы : 6 каналов
Расположение каналов : Front: L C R, Side: L R, LFE
Частота : 48,0 КГц
Битовая глубина : 16 бит
Метод сжатия : С потерями
Размер потока : 372 Мбайт (13%)
Заголовок : TRACK_01_DUB_RUS_Reanimedia
Язык : Russian
Default : Да
Forced : Да

Аудио #2
Идентификатор : 3
Формат : AC-3
Формат/Информация : Audio Coding 3
Расширение режима : CM (complete main)
Параметр Endianness формата : Big
Идентификатор кодека : A_AC3
Продолжительность : 1 ч. 56 м.
Вид битрейта : Постоянный
Битрейт : 448 Кбит/сек
Каналы : 6 каналов
Расположение каналов : Front: L C R, Side: L R, LFE
Частота : 48,0 КГц
Битовая глубина : 16 бит
Метод сжатия : С потерями
Размер потока : 372 Мбайт (13%)
Заголовок : TRACK_02_MVO_RUS_Omikron
Язык : Russian
Default : Нет
Forced : Нет

Аудио #3
Идентификатор : 4
Формат : AC-3
Формат/Информация : Audio Coding 3
Расширение режима : CM (complete main)
Параметр Endianness формата : Big
Идентификатор кодека : A_AC3
Продолжительность : 1 ч. 56 м.
Вид битрейта : Постоянный
Битрейт : 448 Кбит/сек
Каналы : 6 каналов
Расположение каналов : Front: L C R, Side: L R, LFE
Частота : 48,0 КГц
Битовая глубина : 16 бит
Метод сжатия : С потерями
Размер потока : 372 Мбайт (13%)
Заголовок : TRACK_03_MVO_RUS_Animedia
Язык : Russian
Default : Нет
Forced : Нет

Аудио #4
Идентификатор : 5
Формат : AC-3
Формат/Информация : Audio Coding 3
Расширение режима : CM (complete main)
Параметр Endianness формата : Big
Идентификатор кодека : A_AC3
Продолжительность : 1 ч. 56 м.
Вид битрейта : Постоянный
Битрейт : 448 Кбит/сек
Каналы : 6 каналов
Расположение каналов : Front: L C R, Side: L R, LFE
Частота : 48,0 КГц
Битовая глубина : 16 бит
Метод сжатия : С потерями
Размер потока : 372 Мбайт (13%)
Заголовок : TRACK_04_VO_RUS_loster01
Язык : Russian
Default : Нет
Forced : Нет

Аудио #5
Идентификатор : 6
Формат : AC-3
Формат/Информация : Audio Coding 3
Расширение режима : CM (complete main)
Параметр Endianness формата : Big
Идентификатор кодека : A_AC3
Продолжительность : 1 ч. 56 м.
Вид битрейта : Постоянный
Битрейт : 448 Кбит/сек
Каналы : 6 каналов
Расположение каналов : Front: L C R, Side: L R, LFE
Частота : 48,0 КГц
Битовая глубина : 16 бит
Метод сжатия : С потерями
Размер потока : 372 Мбайт (13%)
Заголовок : TRACK_05_ORIGINAL_JPN
Язык : Japanese
Default : Нет
Forced : Нет

Текст #1
Идентификатор : 7
Формат : ASS
Идентификатор кодека : S_TEXT/ASS
Идентификатор кодека/Информация : Advanced Sub Station Alpha
Метод сжатия : Без потерь
Заголовок : TEXT_01_SUB_ENG_Reanimedia
Язык : Russian
Default : Нет
Forced : Нет

Текст #2
Идентификатор : 8
Формат : ASS
Идентификатор кодека : S_TEXT/ASS
Идентификатор кодека/Информация : Advanced Sub Station Alpha
Метод сжатия : Без потерь
Заголовок : TEXT_02_SUB_RUS_Advantage
Язык : Russian
Default : Нет
Forced : Нет

Текст #3
Идентификатор : 9
Формат : ASS
Идентификатор кодека : S_TEXT/ASS
Идентификатор кодека/Информация : Advanced Sub Station Alpha
Метод сжатия : Без потерь
Заголовок : TEXT_03_SUB_ENG
Язык : English
Default : Нет
Forced : Нет

Меню
00:00:00.000 : en:00:00:00.000
00:05:12.229 : en:00:05:12.229
00:09:11.551 : en:00:09:11.551
00:12:57.777 : en:00:12:57.777
00:16:47.840 : en:00:16:47.840
00:23:03.924 : en:00:23:03.924
00:27:53.380 : en:00:27:53.380
00:33:37.891 : en:00:33:37.891
00:36:27.685 : en:00:36:27.685
00:40:47.195 : en:00:40:47.195
00:45:24.722 : en:00:45:24.722
00:47:41.108 : en:00:47:41.108
00:50:25.189 : en:00:50:25.189
00:52:52.419 : en:00:52:52.419
00:56:05.862 : en:00:56:05.862
00:59:49.795 : en:00:59:49.795
01:03:12.247 : en:01:03:12.247
01:07:39.597 : en:01:07:39.597
01:10:27.890 : en:01:10:27.890
01:18:59.985 : en:01:18:59.985
01:21:37.726 : en:01:21:37.726
01:24:22.557 : en:01:24:22.557
01:31:07.379 : en:01:31:07.379
01:37:52.033 : en:01:37:52.033
01:40:13.841 : en:01:40:13.841
01:43:07.181 : en:01:43:07.181
01:45:15.100 : en:01:45:15.100
01:51:00.696 : en:01:51:00.696

x264 [info]: frame I:1533 Avg QP:13.96 size:109786
x264 [info]: frame P:41797 Avg QP:17.43 size: 14008
x264 [info]: frame B:123541 Avg QP:17.19 size: 3046

• Сохранены оригинальные чаптеры как на Blu-ray.

• За помощь в подготовке релиза спасибо Константину - Painter и Виталию - neni
• За исходник спасибо RG Lucky Clover




Релиз от: | Автор рипа:



   Похожие торренты   Торрент   Размер 
В этой теме нет новых непрочитанных сообщений. OST - Ловцы забытых голосов / Children Who Chase Lost Voices from Deep Below / Hoshi o Ou Kodomo (2011) MP3

2 | 5

217.3 МБ

В этой теме нет новых непрочитанных сообщений. OST - Ловцы забытых голосов / Children Who Chase Lost Voices from Deep Below / Hoshi o Ou Kodomo (2011) WavPack

0 | 2

418.32 МБ

В этой теме нет новых непрочитанных сообщений. Ловцы забытых голосов / Hoshi o ou kodomo / Children Who Chase Lost Voices from Deep Below (2011) HDRip | D

132 | 32

744.96 МБ

В этой теме нет новых непрочитанных сообщений. Волчьи дети Амэ и Юки / Ookami Kodomo no Ame to Yuki / The Wolf Children Ame and Yuki (2012) BDRip 720p от Мифоград | L2

0 | 4

3.4 ГБ

В этой теме нет новых непрочитанных сообщений. Волчьи дети Амэ и Юки / Ookami Kodomo no Ame to Yuki / The Wolf Children Ame and Yuki (2012) BDRip 720p от Leonardo and Scarabey

91 | 25

2.14 ГБ

В этой теме нет новых непрочитанных сообщений. Disturbed - The Lost Children (2011) FLAC

2 | 2

459.44 МБ

В этой теме нет новых непрочитанных сообщений. Рассказы о забытых душах / Lost Tales: Forgotten Souls (2013) PC

48 | 4

384.68 МБ




Вы не можете начинать темы
Вы не можете отвечать на сообщения
Вы не можете редактировать свои сообщения
Вы не можете удалять свои сообщения
Вы не можете добавлять вложения

Перейти:  
Для Мосгорсуда, Роскомнадзора и рекламодателей: mosgorsud-torrent[собачка]yandex.ru
 Вход
ppkBB3cker v.2 © 2008-2014 @ PPK
[ Time : 0.018s | 17 Queries | GZIP : Off ]

Торрент трекер RUTOR.IN, Не можете зайти на rutor.org? Какой новый адрес рутор? Какое зеркало рутор? Не работает rutor.org и зеркала? Тогда наш торрент специально для вас. Rutor.in неофициальное зеркало rutor. В случае если у Вас заблокирован rutor или вдруг Вы не можете на него зайти, то Вы без труда сможете скачать бесплатно и без рекламы последние новинки кино, игр, сериалов и прочего у нас, на Rutor.in. Не нужно использовать прокси, чтобы зайти на рутор, достаточно воспользоваться нашим ресурсом. Все новые фильмы, игры, сериалы, книги и музыка за 2013 и 2014 годы через торрент бесплатно. Скачивайте фильмы в хорошем качестве, игры для пк, xbox, playstation без регистрации. У нас вы найдете новые Зарубежные сериалы и Русские сериалы 2013, 2014, 2015 годов. Оставайтесь с нами, качайте любимые фильмы, игры, сериалы, книги и музыку.