img image001 image001 image001 image001 image001 image001 image001 image001 image001 image001 image001 image001 image001 image001 image001

Planets Sun Sun Sun
Статистика раздачи
Автор: PriZraK | Размер: 8.92 ГБ | Добавлен: 15 фев 2014
Раздают: 88    Качают: 40
Скачать торрент
Скачать торрент
Описание торрента

СообщениеДобавлено: 15 фев 2014 

Ведьмина служба доставки (Служба доставки Кики) / Majo no Takkyuubin (Kikis Delivery Service)


Название: Ведьмина служба доставки (Служба доставки Кики)Оригинальное название: Majo no Takkyuubin (Kikis Delivery Service)
Год выхода: 1989
Жанр: Приключения, комедия, драма, сказка, мультфильм, полнометражный



Режиссер: Хаяо Миядзаки

В ролях: Минами Такаяма, Рэй Сакума, Кэйко Тода, Каппэй Ямагути, Харуко Като, Хироко Сэки, Кикуко Иноэ, Мика Дой, Юрико Футидзаки, Есико Асай, Такая Хаси, Томомити Нисимура, Се Сайто, Коити Ямадэра, Синпати Цудзи, Кэйко Кагимото, Акио Оцука, Такаси Тагути, Юко Кобаяси, Тика Сакамото, Миэко Нобусава, Койти Миура



О фильме:
По правилам жизни ведьм, каждая из них, достигнув возраста 13-ти лет, должна найти город, где нет нечистой силы, и прожить в нем ровно год. Молодая ведьма (язык не поворачивается назвать её девочкой - ведьма всё-таки) Кики и ее котенок Дзидзи находят такой приморский городок, где и знакомится с добрым пекарем, который помогает ей начать собственное дело - Экстренную Службу Доставки. Работа знакомит Кики с множеством различных людей, предоставляя возможность обрести новых друзей и совершить массу всевозможных проделок.







Страна: Япония, Studio Ghibli
Продолжительность: 01:43:02
Перевод: Дублированный, профессиональный многоголосый, профессиональный двухголосый, авторский



Качество: BDRip 1080p
Видео: MPEG-4 AVC, 8000 Кбит/с, 1920x1040, 23.976 кадр/с
Аудио 1: Русский (AC3, 2 ch, 192 Кбит/с) – профессиональный многоголосый [Киномания];
Аудио 2: Русский (AC3, 2 ch, 192 Кбит/с) – дублированный [Сонотек];
Аудио 3: Русский (AC3, 2 ch, 224 Кбит/с) – профессиональный двухголосый [Tycoon-Studio];
Аудио 4: Русский (AC3, 2 ch, 192 Кбит/с) – авторский [Артем Толстобров];
Аудио 5: Русский (AC3, 2 ch, 192 Кбит/с) – авторский [Андрей Гаврилов];
Аудио 6: Японский (FLAC, 2 ch, 1438 Кбит/с) - оригинал
Аудио 7: Русский (DTS, 2 ch, 1509 Кбит/с) – профессиональный двухголосый [Петр Гланц и Татьяна Казакова] (внешним файлом)
Аудио 8: Английский (AC3, 2 ch, 192 Кбит/с) - дублированный (внешним файлом)
Субтитры: Русские, английские


Общее
Полное имя : E:Kiki's Delivery Service 1989Kiki's.Delivery.Service.1989.x264.BDRip.1080p.eng.ac3
Формат : AC-3
Формат/Информация : Audio Coding 3
Размер файла : 142 Мбайт
Продолжительность : 1 ч. 43 м.
Режим общего битрейта : Постоянный
Общий поток : 192 Кбит/сек

Аудио
Формат : AC-3
Формат/Информация : Audio Coding 3
Профиль формата : Dolby Digital
Расширение режима : CM (complete main)
Параметр Endianness формата : Big
Продолжительность : 1 ч. 43 м.
Вид битрейта : Постоянный
Битрейт : 192 Кбит/сек
Каналы : 2 канала
Расположение каналов : Front: L R
Частота : 48,0 КГц
Битовая глубина : 16 бит
Метод сжатия : С потерями
Размер потока : 142 Мбайт (100%)

Общее
Полное имя : E:Kiki's Delivery Service 1989Kiki's.Delivery.Service.1989.x264.BDRip.1080p.Glanc-Kazakova.rus.dts
Формат : DTS
Формат/Информация : Digital Theater Systems
Профиль формата : MA / Core
Размер файла : 1,52 Гбайт
Режим общего битрейта : Переменный

Аудио
Формат : DTS
Формат/Информация : Digital Theater Systems
Профиль формата : MA / Core
Режим : 16
Параметр Endianness формата : Big
Вид битрейта : Переменный
Битрейт : Неизвестно / 1509 Кбит/сек
Каналы : 2 канала
Расположение каналов : Front: L R
Частота : 48,0 КГц
Битовая глубина : 24 бит
Метод сжатия : Без потерь / Lossy

Общее
Уникальный идентификатор : 210661240381269787174413886257460710887 (0x9E7BE10C83AF5A128DFF98A85A348DE7)
Полное имя : E:Kiki's Delivery Service 1989Kiki's.Delivery.Service.1989.x264.BDRip.1080p.mkv
Формат : Matroska
Версия формата : Version 2
Размер файла : 7,26 Гбайт
Продолжительность : 1 ч. 44 м.
Режим общего битрейта : Переменный
Общий поток : 9965 Кбит/сек
Дата кодирования : UTC 2014-01-25 13:31:32
Программа кодирования : mkvmerge v6.7.0 ('Back to the Ground') 32bit built on Jan 8 2014 15:03:17
Библиотека кодирования : libebml v1.3.0 + libmatroska v1.4.1

Видео
Идентификатор : 1
Формат : AVC
Формат/Информация : Advanced Video Codec
Профиль формата : High@L4.1
Параметр CABAC формата : Да
Параметр ReFrames формата : 4 кадра
Идентификатор кодека : V_MPEG4/ISO/AVC
Продолжительность : 1 ч. 44 м.
Номинальный битрейт : 8000 Кбит/сек
Ширина : 1920 пикселей
Высота : 1040 пикселей
Соотношение сторон : 1,85:1
Режим частоты кадров : Постоянный
Частота кадров : 23,976 кадра/сек
Цветовое пространство : YUV
Субдискретизация насыщенности : 4:2:0
Битовая глубина : 8 бит
Тип развёртки : Прогрессивная
Бит/(Пиксели*Кадры) : 0.167
Библиотека кодирования : x264 core 125 r2200 999b753
Настройки программы : cabac=1 / ref=4 / deblock=1:-1:-1 / analyse=0x3:0x113 / me=umh / subme=9 / psy=1 / psy_rd=1.00:0.00 / mixed_ref=1 / me_range=24 / chroma_me=1 / trellis=2 / 8x8dct=1 / cqm=0 / deadzone=21,11 / fast_pskip=1 / chroma_qp_offset=-2 / threads=18 / lookahead_threads=3 / sliced_threads=0 / nr=0 / decimate=1 / interlaced=0 / bluray_compat=0 / constrained_intra=0 / bframes=3 / b_pyramid=0 / b_adapt=2 / b_bias=0 / direct=3 / weightb=1 / open_gop=0 / weightp=2 / keyint=240 / keyint_min=23 / scenecut=40 / intra_refresh=0 / rc_lookahead=50 / rc=2pass / mbtree=1 / bitrate=8000 / ratetol=1.0 / qcomp=0.60 / qpmin=10 / qpmax=51 / qpstep=4 / cplxblur=20.0 / qblur=0.5 / vbv_maxrate=50000 / vbv_bufsize=50000 / nal_hrd=none / ip_ratio=1.40 / aq=1:1.00
Язык : Japanese
Default : Да
Forced : Нет

Аудио #1
Идентификатор : 2
Формат : AC-3
Формат/Информация : Audio Coding 3
Расширение режима : CM (complete main)
Параметр Endianness формата : Big
Идентификатор кодека : A_AC3
Продолжительность : 1 ч. 44 м.
Вид битрейта : Постоянный
Битрейт : 192 Кбит/сек
Каналы : 2 канала
Расположение каналов : Front: L R
Частота : 48,0 КГц
Битовая глубина : 16 бит
Метод сжатия : С потерями
Размер потока : 143 Мбайт (2%)
Заголовок : MVO (Kinomania) [DD 2.0 48kHz 192kbps]
Язык : Russian
Default : Нет
Forced : Нет

Аудио #2
Идентификатор : 3
Формат : AC-3
Формат/Информация : Audio Coding 3
Расширение режима : CM (complete main)
Параметр Endianness формата : Big
Идентификатор кодека : A_AC3
Продолжительность : 1 ч. 44 м.
Вид битрейта : Постоянный
Битрейт : 192 Кбит/сек
Каналы : 2 канала
Расположение каналов : Front: L R
Частота : 48,0 КГц
Битовая глубина : 16 бит
Метод сжатия : С потерями
Размер потока : 143 Мбайт (2%)
Заголовок : DUB (Sonotek) [DD 2.0 48kHz 192kbps]
Язык : Russian
Default : Нет
Forced : Нет

Аудио #3
Идентификатор : 4
Формат : AC-3
Формат/Информация : Audio Coding 3
Расширение режима : CM (complete main)
Параметр Endianness формата : Big
Идентификатор кодека : A_AC3
Продолжительность : 1 ч. 44 м.
Вид битрейта : Постоянный
Битрейт : 224 Кбит/сек
Каналы : 2 канала
Расположение каналов : Front: L R
Частота : 48,0 КГц
Битовая глубина : 16 бит
Метод сжатия : С потерями
Размер потока : 167 Мбайт (2%)
Заголовок : DVO (Tycoon) [DD 2.0 48kHz 224kbps]
Язык : Russian
Default : Нет
Forced : Нет

Аудио #4
Идентификатор : 5
Формат : AC-3
Формат/Информация : Audio Coding 3
Расширение режима : CM (complete main)
Параметр Endianness формата : Big
Идентификатор кодека : A_AC3
Продолжительность : 1 ч. 44 м.
Вид битрейта : Постоянный
Битрейт : 192 Кбит/сек
Каналы : 2 канала
Расположение каналов : Front: L R
Частота : 48,0 КГц
Битовая глубина : 16 бит
Метод сжатия : С потерями
Размер потока : 143 Мбайт (2%)
Заголовок : AVO (Tolstobrov) [DD 2.0 48kHz 192kbps]
Язык : Russian
Default : Нет
Forced : Нет

Аудио #5
Идентификатор : 6
Формат : AC-3
Формат/Информация : Audio Coding 3
Расширение режима : CM (complete main)
Параметр Endianness формата : Big
Идентификатор кодека : A_AC3
Продолжительность : 1 ч. 44 м.
Вид битрейта : Постоянный
Битрейт : 192 Кбит/сек
Каналы : 2 канала
Расположение каналов : Front: L R
Частота : 48,0 КГц
Битовая глубина : 16 бит
Метод сжатия : С потерями
Размер потока : 143 Мбайт (2%)
Заголовок : AVO (Gavrilov) [DD 2.0 48kHz 192kbps]
Язык : Russian
Default : Нет
Forced : Нет

Аудио #6
Идентификатор : 7
Формат : FLAC
Формат/Информация : Free Lossless Audio Codec
Идентификатор кодека : A_FLAC
Продолжительность : 1 ч. 44 м.
Вид битрейта : Переменный
Каналы : 2 канала
Частота : 48,0 КГц
Битовая глубина : 24 бит
Заголовок : Original [FLAC 2.0 48kHz 1536kbps]
Библиотека кодирования : libFLAC 1.2.1 (UTC 2007-09-17)
Язык : Japanese
Default : Нет
Forced : Нет

Текст #1
Идентификатор : 8
Формат : ASS
Идентификатор кодека : S_TEXT/ASS
Идентификатор кодека/Информация : Advanced Sub Station Alpha
Метод сжатия : Без потерь
Заголовок : Sonotek
Язык : Russian
Default : Нет
Forced : Нет

Текст #2
Идентификатор : 9
Формат : ASS
Идентификатор кодека : S_TEXT/ASS
Идентификатор кодека/Информация : Advanced Sub Station Alpha
Метод сжатия : Без потерь
Заголовок : toph
Язык : Russian
Default : Нет
Forced : Нет

Текст #3
Идентификатор : 10
Формат : ASS
Идентификатор кодека : S_TEXT/ASS
Идентификатор кодека/Информация : Advanced Sub Station Alpha
Метод сжатия : Без потерь
Заголовок : English
Язык : English
Default : Нет
Forced : Нет



   Похожие торренты   Торрент   Размер 
В этой теме нет новых непрочитанных сообщений. Ведьмина служба доставки / Kiki's Delivery Service / Majo no Takkyuubin (1989) BDRip 1080p от Leonardo and Scarabey | RUSCICO

94 | 21

9.55 ГБ

В этой теме нет новых непрочитанных сообщений. Ведьмина служба доставки / Majo no Takkyuubin (1989) BDRip от Stranik 2.0 | D | P

83 | 4

1.69 ГБ

В этой теме нет новых непрочитанных сообщений. Ведьмина служба доставки / Kiki's Delivery Service / Majo no takkyûbin (2014) HDRip от RG Orient Extreme | L2, L2

51 | 4

2.19 ГБ

В этой теме нет новых непрочитанных сообщений. Ведьмина служба доставки / Kiki's Delivery Service (1989) DVD5

9 | 2

4.36 ГБ

В этой теме нет новых непрочитанных сообщений. Ведьмина служба доставки / Witch's Express Delivery / Kiki s Delivery Service (2014) HDRip | L2

461 | 56

1.38 ГБ

В этой теме нет новых непрочитанных сообщений. Ведьмина служба доставки / Majo no takkyûbin (1989) BDRip 720p от Leonardo and Scarabey | RUSCICO

166 | 27

4.09 ГБ

В этой теме нет новых непрочитанных сообщений. Kingsman: Секретная служба / Kingsman: The Secret Service (2014) BDRip 1080p | D, A

710 | 70

11.77 ГБ




Вы не можете начинать темы
Вы не можете отвечать на сообщения
Вы не можете редактировать свои сообщения
Вы не можете удалять свои сообщения
Вы не можете добавлять вложения

Перейти:  
Для Мосгорсуда, Роскомнадзора и рекламодателей: mosgorsud-torrent[собачка]yandex.ru
 Вход
ppkBB3cker v.2 © 2008-2014 @ PPK
[ Time : 0.129s | 15 Queries | GZIP : Off ]

Торрент трекер RUTOR.IN, Не можете зайти на rutor.org? Какой новый адрес рутор? Какое зеркало рутор? Не работает rutor.org и зеркала? Тогда наш торрент специально для вас. Rutor.in неофициальное зеркало rutor. В случае если у Вас заблокирован rutor или вдруг Вы не можете на него зайти, то Вы без труда сможете скачать бесплатно и без рекламы последние новинки кино, игр, сериалов и прочего у нас, на Rutor.in. Не нужно использовать прокси, чтобы зайти на рутор, достаточно воспользоваться нашим ресурсом. Все новые фильмы, игры, сериалы, книги и музыка за 2013 и 2014 годы через торрент бесплатно. Скачивайте фильмы в хорошем качестве, игры для пк, xbox, playstation без регистрации. У нас вы найдете новые Зарубежные сериалы и Русские сериалы 2013, 2014, 2015 годов. Оставайтесь с нами, качайте любимые фильмы, игры, сериалы, книги и музыку.