img image001 image001 image001 image001 image001 image001 image001 image001 image001 image001 image001 image001 image001 image001 image001

Planets Sun Sun Sun
Статистика раздачи
Автор: PriZraK | Размер: 4.64 ГБ | Добавлен: 15 фев 2014
Раздают: 22    Качают: 5
Скачать торрент
Скачать торрент
Описание торрента

СообщениеДобавлено: 15 фев 2014 

Информация о фильме
Название: Шёпот сердца
Оригинальное название: Mimi wo sumaseba / Whisper of the Heart
Год выхода: 1995
Жанр: мультфильм, драма, мелодрама
Режиссер: Ёсифуми Кондо
В ролях: Ёко Хонна, Кацуо Такахаши, Такаши Тачибана, Шигеру Мурои, Сигеру Цуюгути, Кэйдзю Кобаяси, Йори Йамашита, Маико Каяма, Йошими Накодзима, Минами Такаяма

О фильме:

Школьница средних классов Сидзуку Цукисима обожает читать, «глотая» книги одну за другой. Однако какую бы книжку она не брала из школьной библиотеки, в формуляре прочитавших её прежде значится имя Сэйдзи Амасава. После знакомства с этим необычным пареньком, ставшем её первой любовью, Сидзуку узнаёт много нового и о себе самой, о своих целях в жизни - открытие, которое необратимо изменит её судьбу.


Официальный сайт

Страна: Япония
Студия: Studio Ghibli
Продолжительность: 01:50:50
Перевод:
русские субтитры от ANNA
Озвучка:
Профессиональная многоголосая закадровая от Ruscico
Профессиональная двухголосая закадровая (муж., жен.) от П. Гланц и И. Королёва
Авторская одноголосая закадровая (муж.) от А. Толстобров

Файл
Качество: BDRip
Рип: CHD
Тип релиза: Без хардсаба
Формат видео: MKV
Видео: x264 [8bit], 1280x692, 3809 kbps, 23,976 fps
Аудио RUS#1: AC3, 448 kbps, 48000 Hz, 6ch - Ruscico
Аудио RUS#2: AC3, 640 kbps, 48000 Hz, 6ch - П. Гланц и И. Королёва
Аудио RUS#3: AC3, 448 kbps, 48000 Hz, 6ch - А. Толстобров
Аудио JAP: AC3, 640 kbps, 48000 Hz, 6ch


Формат : Matroska
Версия формата : Version 2
Размер файла : 4,64 Гбайт
Продолжительность : 1 ч. 50 м.
Общий поток : 5987 Кбит/сек
Дата кодирования : UTC 2013-04-12 21:17:39
Программа кодирования : mkvmerge v5.8.0 ('No Sleep / Pillow') built on Sep 2 2012 15:37:04
Библиотека кодирования : libebml v1.2.3 + libmatroska v1.3.0
Видео
Идентификатор : 1
Формат : AVC
Формат/Информация : Advanced Video Codec
Профиль формата : High@L4.1
Параметр CABAC формата : Да
Параметр ReFrames формата : 9 кадров
Идентификатор кодека : V_MPEG4/ISO/AVC
Продолжительность : 1 ч. 50 м.
Битрейт : 3809 Кбит/сек
Ширина : 1280 пикселей
Высота : 692 пикселя
Соотношение сторон : 1,85:1
Режим частоты кадров : Постоянный
Частота кадров : 23,976 кадра/сек
Цветовое пространство : YUV
Субдискретизация насыщенности : 4:2:0
Битовая глубина : 8 бит
Тип развёртки : Прогрессивная
Бит/(Пиксели*Кадры) : 0.179
Размер потока : 2,86 Гбайт (62%)
Библиотека кодирования : x264 core 116 r2037+593 ba36cdb
Настройки программы : cabac=1 / ref=9 / deblock=1:-3:-3 / analyse=0x3:0x113 / me=umh / subme=9 / psy=1 / fade_compensate=0.00 / psy_rd=1.05:0.10 / mixed_ref=1 / me_range=32 / chroma_me=1 / trellis=2 / 8x8dct=1 / cqm=1 / deadzone=21,11 / fast_pskip=0 / chroma_qp_offset=-2 / threads=6 / sliced_threads=0 / nr=0 / decimate=1 / interlaced=0 / bluray_compat=0 / constrained_intra=0 / fgo=0 / bframes=6 / b_pyramid=2 / b_adapt=2 / b_bias=0 / direct=3 / weightb=1 / open_gop=0 / weightp=2 / keyint=250 / keyint_min=23 / scenecut=40 / intra_refresh=0 / rc_lookahead=40 / rc=2pass / mbtree=1 / bitrate=3809 / ratetol=1.0 / qcomp=0.60 / qpmin=3 / qpmax=69 / qpstep=4 / cplxblur=20.0 / qblur=0.5 / vbv_maxrate=40000 / vbv_bufsize=30000 / nal_hrd=none / ip_ratio=1.40 / aq=1:1.00
Язык : Japanese
Default : Нет
Forced : Нет
Аудио #1
Идентификатор : 2
Формат : AC-3
Формат/Информация : Audio Coding 3
Расширение режима : CM (complete main)
Параметр Endianness формата : Big
Идентификатор кодека : A_AC3
Продолжительность : 1 ч. 50 м.
Вид битрейта : Постоянный
Битрейт : 448 Кбит/сек
Каналы : 6 каналов
Расположение каналов : Front: L C R, Side: L R, LFE
Частота : 48,0 КГц
Битовая глубина : 16 бит
Метод сжатия : С потерями
Размер потока : 355 Мбайт (7%)
Заголовок : RUSCICO
Язык : Russian
Default : Да
Forced : Нет
Аудио #2
Идентификатор : 3
Формат : AC-3
Формат/Информация : Audio Coding 3
Расширение режима : CM (complete main)
Параметр Endianness формата : Big
Идентификатор кодека : A_AC3
Продолжительность : 1 ч. 50 м.
Вид битрейта : Постоянный
Битрейт : 640 Кбит/сек
Каналы : 6 каналов
Расположение каналов : Front: L C R, Side: L R, LFE
Частота : 48,0 КГц
Битовая глубина : 16 бит
Метод сжатия : С потерями
Размер потока : 507 Мбайт (11%)
Заголовок : Гланц и Королёва
Язык : Russian
Default : Нет
Forced : Нет
Аудио #3
Идентификатор : 4
Формат : AC-3
Формат/Информация : Audio Coding 3
Расширение режима : CM (complete main)
Параметр Endianness формата : Big
Идентификатор кодека : A_AC3
Продолжительность : 1 ч. 50 м.
Вид битрейта : Постоянный
Битрейт : 448 Кбит/сек
Каналы : 6 каналов
Расположение каналов : Front: L C R, Side: L R, LFE
Частота : 48,0 КГц
Битовая глубина : 16 бит
Метод сжатия : С потерями
Размер потока : 355 Мбайт (7%)
Заголовок : Толстобров
Язык : Russian
Default : Нет
Forced : Нет
Аудио #4
Идентификатор : 5
Формат : AC-3
Формат/Информация : Audio Coding 3
Расширение режима : CM (complete main)
Параметр Endianness формата : Big
Идентификатор кодека : A_AC3
Продолжительность : 1 ч. 50 м.
Вид битрейта : Постоянный
Битрейт : 640 Кбит/сек
Каналы : 6 каналов
Расположение каналов : Front: L C R, Side: L R, LFE
Частота : 48,0 КГц
Битовая глубина : 16 бит
Метод сжатия : С потерями
Размер потока : 507 Мбайт (11%)
Язык : Japanese
Default : Нет
Forced : Нет



Спасибо большое Reigar.!



   Похожие торренты   Торрент   Размер 
В этой теме нет новых непрочитанных сообщений. Шепот сердца / Whisper of the Heart / Mimi wo Sumaseba (1995) BDRip-AVC | 10 bit | P, P2, A

0 | 3

3.17 ГБ

В этой теме нет новых непрочитанных сообщений. Шепот сердца / Whisper of the Heart / Mimi wo Sumaseba (1995) BDRip | P, P2

6 | 2

2.22 ГБ

В этой теме нет новых непрочитанных сообщений. Шепот сердца / Whisper of the Heart / Mimi wo Sumaseba (1995) BDRip | A

46 | 8

2.03 ГБ

В этой теме нет новых непрочитанных сообщений. Шепот сердца / Whisper of the Heart / Mimi wo Sumaseba (1995) HDTVRip 720p

0 | 1

6.85 ГБ

В этой теме нет новых непрочитанных сообщений. Шепот сердца / Whisper of the Heart / Mimi wo Sumaseba (1995) BDRip 1080p | 10 bit | P, P2, A

5 | 2

14.59 ГБ

В этой теме нет новых непрочитанных сообщений. Шепот сердца / Whisper of the Heart / Mimi wo Sumaseba (1995) BDRip 1080p | 10 bit | P, A

9 | 3

9.61 ГБ

В этой теме нет новых непрочитанных сообщений. Шепот сердца / Mimi wo Sumaseba / Whisper of the Heart (1995) BDRip 1080p от NNNB | P

87 | 8

5.77 ГБ




Вы не можете начинать темы
Вы не можете отвечать на сообщения
Вы не можете редактировать свои сообщения
Вы не можете удалять свои сообщения
Вы не можете добавлять вложения

Перейти:  
Для Мосгорсуда, Роскомнадзора и рекламодателей: mosgorsud-torrent[собачка]yandex.ru
 Вход
ppkBB3cker v.2 © 2008-2014 @ PPK
[ Time : 0.021s | 15 Queries | GZIP : On ]

Торрент трекер RUTOR.IN, Не можете зайти на rutor.org? Какой новый адрес рутор? Какое зеркало рутор? Не работает rutor.org и зеркала? Тогда наш торрент специально для вас. Rutor.in неофициальное зеркало rutor. В случае если у Вас заблокирован rutor или вдруг Вы не можете на него зайти, то Вы без труда сможете скачать бесплатно и без рекламы последние новинки кино, игр, сериалов и прочего у нас, на Rutor.in. Не нужно использовать прокси, чтобы зайти на рутор, достаточно воспользоваться нашим ресурсом. Все новые фильмы, игры, сериалы, книги и музыка за 2013 и 2014 годы через торрент бесплатно. Скачивайте фильмы в хорошем качестве, игры для пк, xbox, playstation без регистрации. У нас вы найдете новые Зарубежные сериалы и Русские сериалы 2013, 2014, 2015 годов. Оставайтесь с нами, качайте любимые фильмы, игры, сериалы, книги и музыку.