img image001 image001 image001 image001 image001 image001 image001 image001 image001 image001 image001 image001 image001 image001 image001

Planets Sun Sun Sun
Статистика раздачи
Автор: PriZraK | Размер: 2.22 ГБ | Добавлен: 15 фев 2014
Раздают: 6    Качают: 2
Скачать торрент
Скачать торрент
Описание торрента

СообщениеДобавлено: 15 фев 2014 

Информация о фильме
Название: Шёпот сердца
Оригинальное название: Mimi wo sumaseba / Whisper of the Heart
Год выхода: 1995
Жанр: мультфильм, драма, мелодрама
Режиссер: Ёсифуми Кондо
В ролях: Ёко Хонна, Кацуо Такахаши, Такаши Тачибана, Шигеру Мурои, Сигеру Цуюгути, Кэйдзю Кобаяси, Йори Йамашита, Маико Каяма, Йошими Накодзима, Минами Такаяма

О фильме:

Школьница средних классов Сидзуку Цукисима обожает читать, «глотая» книги одну за другой. Однако какую бы книжку она не брала из школьной библиотеки, в формуляре прочитавших её прежде значится имя Сэйдзи Амасава. После знакомства с этим необычным пареньком, ставшем её первой любовью, Сидзуку узнаёт много нового и о себе самой, о своих целях в жизни - открытие, которое необратимо изменит её судьбу.


Официальный сайт

Страна: Япония
Студия: Studio Ghibli
Продолжительность: 01:50:50
Озвучка:
Профессиональная многоголосая закадровая от Ruscico
Профессиональная двухголосая закадровая (муж., жен.) от П. Гланц и И. Королёва
Субтитры: русские (внешние) Anna и Ruscico, английские (внешние)

Файл
Качество: BDRip
Формат: AVI
Тип видео: Без хардсаба
Видео: 704x380, ~1200 Kbps, 23.976 fps, XviD
Аудио, Russian: AC3, 48000Hz, 5.1ch, 448 CBR
Озвучивание: RUSCICO , в составе контейнера
Аудио, Russian: AC3, 48000Hz, 5.1ch, 640 CBR
Озвучивание: П.Гланц и И.Королёва , в составе контейнера
Аудио, Japanese: AC3, 48000Hz, 5.1ch, 448 Kbps CBR
Оригинальная дорожка, в составе контейнера
Субтитры: русские, английские,srt -формат, внешним файлом




General
Complete name : E:Whisper of the Heart BDRip HWP[A_warrior_of_light] Whisper of the Heart [BDRip 380p AC3].avi
Format : AVI
Format/Info : Audio Video Interleave
Format profile : OpenDML
File size : 2.22 GiB
Duration : 1h 50mn
Overall bit rate : 2 871 Kbps
Writing application : VirtualDubMod 1.6.0.0 SURROUND (build 2560/release)
Writing library : VirtualDubMod build 2560/release
Video
ID : 0
Format : MPEG-4 Visual
Format profile : Advanced Simple@L5
Format settings, BVOP : 2
Format settings, QPel : No
Format settings, GMC : No warppoints
Format settings, Matrix : Default (H.263)
Codec ID : XVID
Codec ID/Hint : XviD
Duration : 1h 50mn
Bit rate : 1 311 Kbps
Width : 704 pixels
Height : 380 pixels
Display aspect ratio : 1.85:1
Frame rate : 23.976 fps
Color space : YUV
Chroma subsampling : 4:2:0
Bit depth : 8 bits
Scan type : Progressive
Compression mode : Lossy
Bits/(Pixel*Frame) : 0.204
Stream size : 1.02 GiB (46%)
Writing library : XviD 1.2.1 (UTC 2008-12-04)
Audio #1
ID : 1
Format : AC-3
Format/Info : Audio Coding 3
Mode extension : CM (complete main)
Format settings, Endianness : Big
Codec ID : 2000
Duration : 1h 50mn
Bit rate mode : Constant
Bit rate : 448 Kbps
Channel(s) : 6 channels
Channel positions : Front: L C R, Side: L R, LFE
Sampling rate : 48.0 KHz
Bit depth : 16 bits
Compression mode : Lossy
Stream size : 355 MiB (16%)
Alignment : Split accross interleaves
Interleave, duration : 42 ms (1.00 video frame)
Interleave, preload duration : 500 ms
Audio #2
ID : 2
Format : AC-3
Format/Info : Audio Coding 3
Mode extension : CM (complete main)
Format settings, Endianness : Big
Codec ID : 2000
Duration : 1h 50mn
Bit rate mode : Constant
Bit rate : 640 Kbps
Channel(s) : 6 channels
Channel positions : Front: L C R, Side: L R, LFE
Sampling rate : 48.0 KHz
Bit depth : 16 bits
Compression mode : Lossy
Stream size : 507 MiB (22%)
Alignment : Split accross interleaves
Interleave, duration : 42 ms (1.00 video frame)
Interleave, preload duration : 500 ms
Audio #3
ID : 3
Format : AC-3
Format/Info : Audio Coding 3
Mode extension : CM (complete main)
Format settings, Endianness : Big
Codec ID : 2000
Duration : 1h 50mn
Bit rate mode : Constant
Bit rate : 448 Kbps
Channel(s) : 6 channels
Channel positions : Front: L C R, Side: L R, LFE
Sampling rate : 48.0 KHz
Bit depth : 16 bits
Compression mode : Lossy
Stream size : 355 MiB (16%)
Alignment : Split accross interleaves
Interleave, duration : 42 ms (1.00 video frame)
Interleave, preload duration : 500 ms


Спасибо A_warrior_of_light!



   Похожие торренты   Торрент   Размер 
В этой теме нет новых непрочитанных сообщений. Шепот сердца / Whisper of the Heart / Mimi wo Sumaseba (1995) BDRip-AVC | 10 bit | P, P2, A

0 | 3

3.17 ГБ

В этой теме нет новых непрочитанных сообщений. Шепот сердца / Whisper of the Heart / Mimi wo Sumaseba (1995) BDRip | A

46 | 8

2.03 ГБ

В этой теме нет новых непрочитанных сообщений. Шепот сердца / Whisper of the Heart / Mimi wo Sumaseba (1995) BDRip 720p | P, P2, A

22 | 5

4.64 ГБ

В этой теме нет новых непрочитанных сообщений. Шепот сердца / Whisper of the Heart / Mimi wo Sumaseba (1995) BDRip 1080p | 10 bit | P, P2, A

5 | 2

14.59 ГБ

В этой теме нет новых непрочитанных сообщений. Шепот сердца / Whisper of the Heart / Mimi wo Sumaseba (1995) BDRip 1080p | 10 bit | P, A

9 | 3

9.61 ГБ

В этой теме нет новых непрочитанных сообщений. Шепот сердца / Mimi wo Sumaseba / Whisper of the Heart (1995) BDRip 1080p от NNNB | P

87 | 8

5.77 ГБ

В этой теме нет новых непрочитанных сообщений. Шепот сердца / Whisper of the Heart / Mimi wo Sumaseba (1995) BDRemux | P, P2, A

4 | 3

30.06 ГБ




Вы не можете начинать темы
Вы не можете отвечать на сообщения
Вы не можете редактировать свои сообщения
Вы не можете удалять свои сообщения
Вы не можете добавлять вложения

Перейти:  
Для Мосгорсуда, Роскомнадзора и рекламодателей: mosgorsud-torrent[собачка]yandex.ru
 Вход
ppkBB3cker v.2 © 2008-2014 @ PPK
[ Time : 0.039s | 15 Queries | GZIP : Off ]
CGP output time : 0.028s | 5 Queries | GZIP : Off

Торрент трекер RUTOR.IN, Не можете зайти на rutor.org? Какой новый адрес рутор? Какое зеркало рутор? Не работает rutor.org и зеркала? Тогда наш торрент специально для вас. Rutor.in неофициальное зеркало rutor. В случае если у Вас заблокирован rutor или вдруг Вы не можете на него зайти, то Вы без труда сможете скачать бесплатно и без рекламы последние новинки кино, игр, сериалов и прочего у нас, на Rutor.in. Не нужно использовать прокси, чтобы зайти на рутор, достаточно воспользоваться нашим ресурсом. Все новые фильмы, игры, сериалы, книги и музыка за 2013 и 2014 годы через торрент бесплатно. Скачивайте фильмы в хорошем качестве, игры для пк, xbox, playstation без регистрации. У нас вы найдете новые Зарубежные сериалы и Русские сериалы 2013, 2014, 2015 годов. Оставайтесь с нами, качайте любимые фильмы, игры, сериалы, книги и музыку.