img image001 image001 image001 image001 image001 image001 image001 image001 image001 image001 image001 image001 image001 image001 image001

Planets Sun Sun Sun
Статистика раздачи
Автор: PriZraK | Размер: 8.71 ГБ | Добавлен: 15 фев 2014
Раздают: 22    Качают: 27
Скачать торрент
Скачать торрент
Описание торрента

СообщениеДобавлено: 15 фев 2014 

Информация о фильме
Название: Агент Вексилл
Оригинальное название: Vexille - 2077 Japan National Isolation
Год выхода: 2007
Жанр: Приключения, фантастика
Режиссер: Сори Фумихико

О фильме:
Действие фильма происходит в 2077 году. За 10 лет до этого Япония вышла из ООН и отгородилась от мира магнитным полем. Поводом для этого послужила резолюция ООН, которая запретила дальнейшее развитие робототехники и биотехнологий, угрожающих существованию человечества.И вот правительство США посылает в Японию спецподразделение SWORD под командованием женщины по имени Vexille. Задание — узнать, что за эти 10 лет случилось в Стране Восходящего Солнца, где запретные науки развивались абсолютно бесконтрольно. Однако оказывается, что тайны одна за одной скрывают другую и все это ведет к драматическому финалу...
Страна: Япония
Студия: Avex Entertainment, CCRE, Oxybot, Shochiku Company, Shogakukan Inc., Shogakukan Production, Tokyo Broadcasting System (TBS), Yahoo Japan
Продолжительность: 01:50:54
Перевод: Многоголосый закадровый, авторский(отдельным файлом), английский, японский(отдельным файлом).



Файл
Кодек: h.264
Качество: BDRip 1080p
Видео: 1920x1080, 9148 Kbps, 23.976 fps, Bits/(Pixel*Frame) 0.184
Звук #1: AC3, 448 Kbps (rus)
Звук #2: AC3, 640 Kbps (eng)
Звук #3: AC3, 448 Kbps (rus) - отдельным файлом
Звук #4: AC3, 640 Kbps (jpn) - отдельным файлом
Субтитры: Русские

Format : Matroska
Format version : Version 4 / Version 2
File size : 7.87 GiB
Duration : 1h 50mn
Overall bit rate : 10.2 Mbps
Encoded date : UTC 2014-01-27 20:02:57
Writing application : mkvmerge v6.1.0 ('Old Devil') built on Mar 4 2013 09:10:42
Writing library : libebml v1.3.0 + libmatroska v1.4.0
Attachment : Yes / Yes / Yes / Yes / Yes / Yes / Yes / Yes / Yes / Yes / Yes / Yes / Yes / Yes / Yes / Yes / Yes / Yes / Yes / Yes / Yes / Yes / Yes / Yes / Yes

Video
ID : 1
Format : AVC
Format/Info : Advanced Video Codec
Format profile : High@L4.1
Format settings, CABAC : Yes
Format settings, ReFrames : 4 frames
Codec ID : V_MPEG4/ISO/AVC
Duration : 1h 50mn
Bit rate : 9 148 Kbps
Width : 1 920 pixels
Height : 1 080 pixels
Display aspect ratio : 16:9
Frame rate mode : Constant
Frame rate : 23.976 fps
Color space : YUV
Chroma subsampling : 4:2:0
Bit depth : 8 bits
Scan type : Progressive
Bits/(Pixel*Frame) : 0.184
Stream size : 6.87 GiB (87%)
Writing library : x264 core 130 r2273 b3065e6
Encoding settings : cabac=1 / ref=4 / deblock=1:-1:-1 / analyse=0x3:0x133 / me=umh / subme=10 / psy=1 / psy_rd=1.00:0.10 / mixed_ref=1 / me_range=32 / chroma_me=1 / trellis=2 / 8x8dct=1 / cqm=0 / deadzone=21,11 / fast_pskip=0 / chroma_qp_offset=-3 / threads=9 / lookahead_threads=1 / sliced_threads=0 / nr=0 / decimate=1 / interlaced=0 / bluray_compat=0 / constrained_intra=0 / bframes=8 / b_pyramid=2 / b_adapt=2 / b_bias=0 / direct=3 / weightb=1 / open_gop=0 / weightp=2 / keyint=250 / keyint_min=23 / scenecut=40 / intra_refresh=0 / rc_lookahead=60 / rc=2pass / mbtree=1 / bitrate=9148 / ratetol=1.0 / qcomp=0.60 / qpmin=0 / qpmax=69 / qpstep=4 / cplxblur=20.0 / qblur=0.5 / ip_ratio=1.40 / aq=1:1.00
Language : English
Default : Yes
Forced : No

Audio #1
ID : 2
Format : AC-3
Format/Info : Audio Coding 3
Mode extension : CM (complete main)
Format settings, Endianness : Big
Codec ID : A_AC3
Duration : 1h 50mn
Bit rate mode : Constant
Bit rate : 448 Kbps
Channel count : 6 channels
Channel positions : Front: L C R, Side: L R, LFE
Sampling rate : 48.0 KHz
Bit depth : 16 bits
Compression mode : Lossy
Stream size : 355 MiB (4%)
Title : Rus DVD Land
Language : Russian
Default : Yes
Forced : No

Audio #2
ID : 3
Format : AC-3
Format/Info : Audio Coding 3
Mode extension : CM (complete main)
Format settings, Endianness : Big
Codec ID : A_AC3
Duration : 1h 50mn
Bit rate mode : Constant
Bit rate : 640 Kbps
Channel count : 6 channels
Channel positions : Front: L C R, Side: L R, LFE
Sampling rate : 48.0 KHz
Bit depth : 16 bits
Compression mode : Lossy
Delay relative to video : 500ms
Stream size : 508 MiB (6%)
Title : Eng
Language : English
Default : No
Forced : No

Text
ID : 4
Format : UTF-8
Codec ID : S_TEXT/UTF8
Codec ID/Info : UTF-8 Plain Text
Title : Rus
Language : Russian
Default : Yes
Forced : No


x264 [info]: frame I:1086 Avg QP: 7.50 size:331640
x264 [info]: frame P:51526 Avg QP:12.01 size: 81608
x264 [info]: frame B:105372 Avg QP:14.60 size: 28141





   Похожие торренты   Торрент   Размер 
В этой теме нет новых непрочитанных сообщений. Агент Вексилл / Bekushiru: 2077 Nihon sakoku (2007) BDRip 1080p [Hi10P] от FREEISLAND

13 | 11

4.37 ГБ

В этой теме нет новых непрочитанных сообщений. OST. Агент Вексилл / Vexille [2CD Deluxe Edition] (2007) MP3

0 | 2

346.9 МБ

В этой теме нет новых непрочитанных сообщений. National Geographic: Чудища морей: Доисторическое Приключение / National Geographic: Sea Monsters: A Prehistoric Adventure (2007) BDRip 1080p | L1

41 | 34

3.27 ГБ

В этой теме нет новых непрочитанных сообщений. National Geographic: Японская катастрофа: Захвачено камерой / National Geographic: Japan Disaster: Caught On Camera (2011) SATRip от tenow

2 | 2

700.08 МБ

В этой теме нет новых непрочитанных сообщений. Сокровище нации: Дилогия / National Treasure: Dilogy (2004-2007) BDRip 1080p

148 | 7

15.52 ГБ

В этой теме нет новых непрочитанных сообщений. Сокровище нации / National Treasure (2004-2007) BDRip 1080p от qzqz72 | Дилогия

71 | 42

9.88 ГБ

В этой теме нет новых непрочитанных сообщений. Сокровище нации: Книга тайн / National Treasure: Book of Secrets (2007) BDRip 1080p

115 | 12

11.24 ГБ




Вы не можете начинать темы
Вы не можете отвечать на сообщения
Вы не можете редактировать свои сообщения
Вы не можете удалять свои сообщения
Вы не можете добавлять вложения

Перейти:  
Для Мосгорсуда, Роскомнадзора и рекламодателей: mosgorsud-torrent[собачка]yandex.ru
 Вход
ppkBB3cker v.2 © 2008-2014 @ PPK
[ Time : 0.054s | 15 Queries | GZIP : Off ]

Торрент трекер RUTOR.IN, Не можете зайти на rutor.org? Какой новый адрес рутор? Какое зеркало рутор? Не работает rutor.org и зеркала? Тогда наш торрент специально для вас. Rutor.in неофициальное зеркало rutor. В случае если у Вас заблокирован rutor или вдруг Вы не можете на него зайти, то Вы без труда сможете скачать бесплатно и без рекламы последние новинки кино, игр, сериалов и прочего у нас, на Rutor.in. Не нужно использовать прокси, чтобы зайти на рутор, достаточно воспользоваться нашим ресурсом. Все новые фильмы, игры, сериалы, книги и музыка за 2013 и 2014 годы через торрент бесплатно. Скачивайте фильмы в хорошем качестве, игры для пк, xbox, playstation без регистрации. У нас вы найдете новые Зарубежные сериалы и Русские сериалы 2013, 2014, 2015 годов. Оставайтесь с нами, качайте любимые фильмы, игры, сериалы, книги и музыку.