img image001 image001 image001 image001 image001 image001 image001 image001 image001 image001 image001 image001 image001 image001 image001

Planets Sun Sun Sun
Статистика раздачи
Автор: PriZraK | Размер: 4.04 ГБ | Добавлен: 15 фев 2014
Раздают: 27    Качают: 4
Скачать торрент
Скачать торрент
Описание торрента

СообщениеДобавлено: 15 фев 2014 

Информация о фильме
Название: Guilty Crown
Оригинальное название: Корона греха / Корона грешника
Страна: Япония
Год выпуска: 2011 г.
Жанр: приключения, фантастика, меха, драма
Тип: TV
Продолжительность: 22 эп, ~25 мин. серия
Режиссер: Араки Тэцуро
Студия: Production I.G

О фильме:: После эпидемии вируса «Апокалипсис» в 2029 году Страна Восходящего солнца оказалась банкротом и попала под внешнее управление. Частная организация GHQ, неизвестно откуда пришедшая к власти, ввела военное положение и безжалостно подавляет любую оппозицию. Тем не менее, даже десять лет спустя Токио регулярно сотрясают крупные и мелкие теракты, а ряды борцов Сопротивления лишь пополняются. Нежданно-негаданно в них попадает 17-летний Сю Ома, тихий парень, любитель видеомонтажа. Как водится, всему виною женщина – в данном случае Инори Юдзуриха, певица и сетевой идол, по совместительству – борец за свободу и член подпольной группировки «Гробовщики»!

Попав в ситуацию словно из «Звездных войн», Сю взял себя в руки и твердо решил помочь «принцессе в беде». Быстро познакомившись с «гробовщиками», Ома втянулся в первые бои среди трущоб и, конечно же, открыл в себе «силу королей» - способность погружаться в Пустоту, что внутри Избранных, и доставать оттуда супероружие, манифестацию духа каждого из них. Теперь отступать некуда – свобода или смерть! При этом парень ухитряется учиться в старшей школе, готовить конкурсные клипы и дружить с Инори, которую отправили к нему «на усиление». Пользуйся Силой, Сю – иначе долго так не протянешь!

© Hollow, World Art

Перевод :
Русский - любительский двухголосый от RG Genshiken
Украинский - любительский многоголосый от UA MAX

Файл
Качество: BDRip
Тип релиза: Без хардсаба
Формат видео: MKV
Автор рипа: [encoded by SEED]
Совместимость с бытовыми плеерами: Да
Видео: x264, 1280x720, ~1600 Kbps, 23.976 fps
Аудио 1: AC3, 48000Hz, 192 Kbps, 2ch Язык Русский (в составе контейнера) ; Озвучка (муж./жен.) : RG Genshiken [Scrap & Kedra]
Аудио 2: AC3, 48000Hz, 192 Kbps, 2ch Язык Украинский (в составе контейнера) ; Озвучка от студии [UA MAX]
Озвучування:Ray, Vitali Izmalkov, Rusalka, Emeri, Rise
Робота зi звуком:Ray
Таймiнг:Ray, Дымок, CRASH
Переклад: Sensetivity
Редагування:Анжелiка Вольська, Gedet
Окрема подяка:Ledi Margaret, Daity
Виконання пiснi:Nika lenina
Переклад пiснi:Ray
======================
ретаймiнг BD - CRASH
Код:
Общее
Уникальный идентификатор                 : 242031306212948554852229824354275528713 (0xB61588B4F9BC32CD80A673E408639009)
Полное имя                               : G:UA_MAXGuilty Crown [BD 720p HD]Guilty Crown - 01 (BD 1280x720 AVC AC3x2).mkv
Формат                                   : Matroska
Версия формата                           : Version 4 / Version 2
Размер файла                             : 361 Мбайт
Продолжительность                        : 23 м.
Общий поток                              : 2152 Кбит/сек
Дата кодирования                         : UTC 2014-01-27 11:01:48
Программа кодирования                    : mkvmerge v6.1.0 ('Old Devil') built on Mar  4 2013 09:10:42
Библиотека кодирования                   : libebml v1.3.0 + libmatroska v1.4.0

Видео
Идентификатор                            : 1
Формат                                   : AVC
Формат/Информация                        : Advanced Video Codec
Профиль формата                          : High@L4.0
Параметр CABAC формата                   : Да
Параметр ReFrames формата                : 6 кадров
Идентификатор кодека                     : V_MPEG4/ISO/AVC
Продолжительность                        : 23 м.
Битрейт                                  : 1726 Кбит/сек
Ширина                                   : 1280 пикселей
Высота                                   : 720 пикселей
Соотношение сторон                       : 16:9
Режим частоты кадров                     : Постоянный
Частота кадров                           : 23,976 кадра/сек
Цветовое пространство                    : YUV
Субдискретизация насыщенности            : 4:2:0
Битовая глубина                          : 8 бит
Тип развёртки                            : Прогрессивная
Бит/(Пиксели*Кадры)                      : 0.078
Размер потока                            : 289 Мбайт (80%)
Default                                  : Да
Forced                                   : Нет

Аудио #1
Идентификатор                            : 2
Формат                                   : AC-3
Формат/Информация                        : Audio Coding 3
Расширение режима                        : CM (complete main)
Параметр Endianness формата              : Big
Идентификатор кодека                     : A_AC3
Продолжительность                        : 23 м.
Вид битрейта                             : Постоянный
Битрейт                                  : 192 Кбит/сек
Каналы                                   : 2 канала
Расположение каналов                     : Front: L R
Частота                                  : 48,0 КГц
Битовая глубина                          : 16 бит
Метод сжатия                             : С потерями
Размер потока                            : 32,2 Мбайт (9%)
Заголовок                                : [Scrap & Kedra]
Язык                                     : Russian
Default                                  : Да
Forced                                   : Нет

Аудио #2
Идентификатор                            : 3
Формат                                   : AC-3
Формат/Информация                        : Audio Coding 3
Расширение режима                        : CM (complete main)
Параметр Endianness формата              : Big
Идентификатор кодека                     : A_AC3
Продолжительность                        : 23 м.
Вид битрейта                             : Постоянный
Битрейт                                  : 192 Кбит/сек
Каналы                                   : 2 канала
Расположение каналов                     : Front: L R
Частота                                  : 48,0 КГц
Битовая глубина                          : 16 бит
Метод сжатия                             : С потерями
Размер потока                            : 32,2 Мбайт (9%)
Заголовок                                : UA MAX
Язык                                     : Ukrainian
Default                                  : Нет
Forced                                   : Нет

01. Genesis
02. Survival of the Fittest
03. Void-Sampling
04. Flux
05. A Preparation
06. Leukocytes
07. Temptation
08. Courtship Behavior
09. Prey
10. Retraction
11. Resonance
12. The Lost Christmas
13. Isolation
14. Election
15. Sacrifice
16. The Tyrant
17. Exodus
18. Dear...
19. Rebirth
20. A Diary
21. Emergence
22. Convergence


Релиз от:



   Похожие торренты   Торрент   Размер 
В этой теме нет новых непрочитанных сообщений. Пустая корона / The Hollow Crown [S02] (2016) BDRip 720p | L

94 | 25

17.41 ГБ

В этой теме нет новых непрочитанных сообщений. Пустая корона / The Hollow Crown [S01] (2012) BDRip 720p от MediaClub | P

30 | 7

23.6 ГБ

В этой теме нет новых непрочитанных сообщений. Корона и дракон / The Crown and the Dragon (2013) BDRip 720p от New-Team | P | лицензия

382 | 164

4.95 ГБ

В этой теме нет новых непрочитанных сообщений. Корона / The Crown [S01] (2016) WEBRip 720p | NewStudio

79 | 33

12.02 ГБ

В этой теме нет новых непрочитанных сообщений. Корона / The Crown [01x01-02 из 10] (2016) WEBRip 720p | Jaskier

82 | 44

4.97 ГБ

В этой теме нет новых непрочитанных сообщений. Пустая корона / The Hollow Crown [S01] (2012) HDTVRip 720p | SUB

98 | 8

14.3 ГБ

В этой теме нет новых непрочитанных сообщений. Пустая корона / The Hollow Crown [S01] (2012) HDTVRip 720p | P

690 | 106

11.41 ГБ




Вы не можете начинать темы
Вы не можете отвечать на сообщения
Вы не можете редактировать свои сообщения
Вы не можете удалять свои сообщения
Вы не можете добавлять вложения

Перейти:  
Для Мосгорсуда, Роскомнадзора и рекламодателей: mosgorsud-torrent[собачка]yandex.ru
 Вход
ppkBB3cker v.2 © 2008-2014 @ PPK
[ Time : 0.039s | 19 Queries | GZIP : Off ]
CGP output time : 0.032s | 5 Queries | GZIP : Off

Торрент трекер RUTOR.IN, Не можете зайти на rutor.org? Какой новый адрес рутор? Какое зеркало рутор? Не работает rutor.org и зеркала? Тогда наш торрент специально для вас. Rutor.in неофициальное зеркало rutor. В случае если у Вас заблокирован rutor или вдруг Вы не можете на него зайти, то Вы без труда сможете скачать бесплатно и без рекламы последние новинки кино, игр, сериалов и прочего у нас, на Rutor.in. Не нужно использовать прокси, чтобы зайти на рутор, достаточно воспользоваться нашим ресурсом. Все новые фильмы, игры, сериалы, книги и музыка за 2013 и 2014 годы через торрент бесплатно. Скачивайте фильмы в хорошем качестве, игры для пк, xbox, playstation без регистрации. У нас вы найдете новые Зарубежные сериалы и Русские сериалы 2013, 2014, 2015 годов. Оставайтесь с нами, качайте любимые фильмы, игры, сериалы, книги и музыку.