img image001 image001 image001 image001 image001 image001 image001 image001 image001 image001 image001 image001 image001 image001 image001

Planets Sun Sun Sun
Статистика раздачи
Автор: PriZraK | Размер: 1.02 ГБ | Добавлен: 15 фев 2014
Раздают: 51    Качают: 3
Скачать торрент
Скачать торрент
Описание торрента

СообщениеДобавлено: 15 фев 2014 

Информация о фильме

Название : Литературная барышня - Фильм / Книжная Лакомка
Оригинальное название : Gekijouban Bungaku Shoujo / 劇場版"文学少女"
Год выхода : 2010
Жанр : драма, романтика
Режиссер : Тада Сюнсукэ
Роли озвучивали : Кана Ханадзава, Ирино Мию, Аки Тоёсаки, Асами Шимода, Дайсукэ Оно, Мамору Мияно, Нана Мидзуки, Шизука Ито

Описание : Главный герой - Коноха Иноуэ - выглядит обычным старшеклассником. Его школьная жизнь могла бы показаться совершенно неинтересной, если бы не хранимый им секрет - он хотел стать писателем - автором женских романтических бестселлеров. Однако после одного неприятного эпизода, произошедшего два года назад, он поклялся себе никогда больше не писать.
Все меняется, когда он переходит в новую школу. Президент литературного кружка Токо Амано буквально вынуждает его вступить в клуб. Токо питается книгами, поэтому теперь каждый день после занятий Коноха пишет для нее новую литературную пищу.



Доп. информация: С русским дубляжом от «Reanimedia», под названиям «Буквоежка» на дисках аниме выйдет: 25 марта 2014

Страна : Япония
Производство : Production I.G.
Продолжительность : 01:40:55
Перевод : Любительскеий (Многоголосый, закадровый)
Русские субтитры : есть

Перевод на русский:
Перевод: Dreamers Team
Переводчик / Перевод песен: junnes
Редактор: shootnik
Редактор / Оформление: Amarillis

Озвучивание: OSLIKt & Trina_D & NikaLenina & Chihiro & Kapets
Релиз : FooBoo

Файл
Формат видео : AVI
Качество : BDRip

Видео: XviD, 704x396 (16:9), ~1066 Кбит/с, 23.976 fps
Аудио 1: Русский, Mp3, 192 Кбит/с, 48000Hz, 2 ch (в составе контейнера)
Аудио 2: Японский, Mp3, 192 Кбит/с, 48000Hz, 2 ch (в составе контейнера)
Субтитры (srt): Русские (внешним файлом)






General
Complete name : E:/Torrent_2/Gekijouban Bungaku Shoujo [BDRip XviD 396p Mp3]/Gekijouban Bungaku Shoujo [BDRip XviD 396p Mp3].avi
Format : AVI
Format/Info : Audio Video Interleave
Format profile : OpenDML
File size : 1.02 GiB
Duration : 1h 40mn
Overall bit rate : 1 454 Kbps
Writing application : AVI-Mux GUI 1.17.8.3, Feb 16 201019:42:50

Video #0
ID : 0
Format : MPEG-4 Visual
Format profile : Simple@L3
Format settings, BVOP : No
Format settings, QPel : No
Format settings, GMC : No warppoints
Format settings, Matrix : Default (H.263)
Codec ID : XVID
Codec ID/Hint : XviD
Duration : 1h 40mn
Bit rate : 1 066 Kbps
Width : 704 pixels
Height : 396 pixels
Display aspect ratio : 16:9
Frame rate : 23.976 fps
Color space : YUV
Chroma subsampling : 4:2:0
Bit depth : 8 bits
Scan type : Progressive
Compression mode : Lossy
Bits/(Pixel*Frame) : 0.159
Stream size : 769 MiB (73%)
Writing library : XviD 61

Audio #1
ID : 1
Format : MPEG Audio
Format version : Version 1
Format profile : Layer 3
Codec ID : 55
Codec ID/Hint : MP3
Duration : 1h 40mn
Bit rate mode : Constant
Bit rate : 192 Kbps
Channel(s) : 2 channels
Sampling rate : 48.0 KHz
Compression mode : Lossy
Stream size : 139 MiB (13%)
Alignment : Aligned on interleaves
Interleave, duration : 569 ms (13.64 video frames)
Interleave, preload duration : 216 ms
Title : AniDub MVO
Writing library : LAME3.98.4

Audio #2
ID : 2
Format : MPEG Audio
Format version : Version 1
Format profile : Layer 3
Mode : Joint stereo
Mode extension : MS Stereo
Codec ID : 55
Codec ID/Hint : MP3
Duration : 1h 40mn
Bit rate mode : Constant
Bit rate : 192 Kbps
Channel(s) : 2 channels
Sampling rate : 48.0 KHz
Compression mode : Lossy
Stream size : 139 MiB (13%)
Alignment : Aligned on interleaves
Interleave, duration : 569 ms (13.64 video frames)
Interleave, preload duration : 216 ms
Title : Gekijouban Bungaku Shoujo [BDRip XviD 396p AC3]
Writing library : LAME3.98







   Похожие торренты   Торрент   Размер 
В этой теме нет новых непрочитанных сообщений. Буквоежка / Литературная барышня / Gekijouban Bungaku Shoujo / Book Girl (2010) BDRip от Stranik 2.0 | D | Лицензия

18 | 14

1.92 ГБ

В этой теме нет новых непрочитанных сообщений. Записки литературной барышни / Книжная Лакомка: Воспоминания / Bungaku Shoujo Memoire [OVA] [03 из 03] (2010) DVDRip | L2

15 | 13

1.92 ГБ

В этой теме нет новых непрочитанных сообщений. Литературная девушка / Bungaku Shoujo: Kyou no Oyatsu - Hatsukoi [OVA] [1 из 1] (2009) BDRip-1080p (Hi10P) | L1

9 | 3

378.66 МБ

В этой теме нет новых непрочитанных сообщений. Gekijouban Mahou Shoujo Madoka Magica / Девочка-волшебница Мадока (Фильмы) [Movie] [1 из 3] (2013) BDRip 1080p | AniFilm MVO

11 | 5

9.58 ГБ

В этой теме нет новых непрочитанных сообщений. Gekijouban Mahou Shoujo Madoka Magica / Девочка-волшебница Мадока (Фильмы) [Movie] [2 из 3] (2013) BDRip 720p | AniFilm MVO

33 | 11

1.32 ГБ

В этой теме нет новых непрочитанных сообщений. Gekijouban Mahou Shoujo Madoka Magica / Девочка-волшебница Мадока (Фильмы) [Movie] [2 из 3] (2013) BDRip 1080p | AniFilm MVO

25 | 4

9.71 ГБ

В этой теме нет новых непрочитанных сообщений. Gekijouban Mahou Shoujo Madoka Magica / Девочка-волшебница Мадока (Фильмы) [Movie] [1 из 3] (2013) BDRip 720p | AniFilm MVO

151 | 5

1.25 ГБ




Вы не можете начинать темы
Вы не можете отвечать на сообщения
Вы не можете редактировать свои сообщения
Вы не можете удалять свои сообщения
Вы не можете добавлять вложения

Перейти:  
Для Мосгорсуда, Роскомнадзора и рекламодателей: mosgorsud-torrent[собачка]yandex.ru
 Вход
ppkBB3cker v.2 © 2008-2014 @ PPK
[ Time : 0.523s | 15 Queries | GZIP : Off ]

Торрент трекер RUTOR.IN, Не можете зайти на rutor.org? Какой новый адрес рутор? Какое зеркало рутор? Не работает rutor.org и зеркала? Тогда наш торрент специально для вас. Rutor.in неофициальное зеркало rutor. В случае если у Вас заблокирован rutor или вдруг Вы не можете на него зайти, то Вы без труда сможете скачать бесплатно и без рекламы последние новинки кино, игр, сериалов и прочего у нас, на Rutor.in. Не нужно использовать прокси, чтобы зайти на рутор, достаточно воспользоваться нашим ресурсом. Все новые фильмы, игры, сериалы, книги и музыка за 2013 и 2014 годы через торрент бесплатно. Скачивайте фильмы в хорошем качестве, игры для пк, xbox, playstation без регистрации. У нас вы найдете новые Зарубежные сериалы и Русские сериалы 2013, 2014, 2015 годов. Оставайтесь с нами, качайте любимые фильмы, игры, сериалы, книги и музыку.