img image001 image001 image001 image001 image001 image001 image001 image001 image001 image001 image001 image001 image001 image001 image001

Planets Sun Sun Sun
Статистика раздачи
Автор: PriZraK | Размер: 3.49 ГБ | Добавлен: 16 фев 2014
Раздают: 81    Качают: 8
Скачать торрент
Скачать торрент
Описание торрента

СообщениеДобавлено: 16 фев 2014 


Информация о фильме
    Русское название: Пять сантиметров в секунду
    Оригинальное название: Byousoku 5 Centimeter / 5 Centimeters per Second
    Год выхода: 2007
    Жанр: Романтика, драма
    Режиссер: Макото Синкай
    Выпущено: Япония
    Продолжительность: 01:03:27
    Перевод: Дублированный, Любительский (Двухголосый, закадровый),Любительский (Одноголосый, закадровый)
    Роли озвучивали: Кэндзи Мизухаши, Ёсими Кондо, Сатоми Ханамура, Аяка Оноэ, Риса Мидзуно, Юка Теразаки, Юко Накамура, Масами Ивасаки, Реи Кондо, Хироши Симозаки
    Роли дублировали: Борис Алексеев, Елена Симанович, Юлия Лихобабина, Александр Лаенко, Александр Фильченко


Сюжет фильма
    После окончания начальной школы Такаки Тоно и его близкая подруга Акари Синохара вынуждены расстаться. Акари переводят в среднюю школу в префектуре Тотиги, а Такаки продолжает учиться в средней школе в Токио. Они пишут друг другу письма и снова обретают счастье от возможности разделить свои чувства друг с другом. Но так случилось, что спустя некоторое время уже семья Такаки вынуждена переехать в префектуру Кагосима. Поэтому он решает повидаться с Акари, поскольку потом они будут слишком далеко друг от друга и, возможно, уже не встретятся. Такаки отправляется на встречу с несколькими пересадками на поезде (синкансэне), но из-за снегопада поезда всё больше и больше отстают от расписания...


Файл
    Качество: BDRip 720p (исходник Blu-ray Disc Remux) (За исходник спасибо Stranik 2.0)
    Видео: 1280x718, 6054 Кбит/сек, 23,976 кадр/сек, AVC, x264, High@L4.1, 16:9, 0.275 Бит/[Пиксели*Кадры], 2pass
    Аудио 1: AC-3, 448 Кбит/сек, 6 канала(ов), 48,0 КГц - Дублированный (Reanimedia) / Русский
    Аудио 1: AC-3, 448 Кбит/сек, 4 канала(ов), 48,0 КГц - Двухголосый закадровый, Dobri Skazochnik & Keneretta / Русский
    Аудио 1: AC-3, 128 Кбит/сек, 2 канала(ов), 48,0 КГц - Одноголосый закадровый, Cuba77 / Русский
    Аудио 1: AC-3, 448 Кбит/сек, 6 канала(ов), 48,0 КГц - Дублированный / Английский
    Аудио 2: AC-3, 448 Кбит/сек, 4 канала(ов), 48,0 КГц - Оригинал / Японский
    Субтитры: Русские | Полные, Английские | Полные
    Чаптеры (Главы): Есть



Автор Рипа: Сообщество:



Format : Matroska
Format version : Version 2
File size : 3.49 GiB
Duration : 1h 3mn
Overall bit rate : 7 879 Kbps
Movie name : Пять сантиметров в секунду.(2007).BDRip.720p.[envy]
Encoded date : UTC 2014-02-07 19:56:46
Writing application : mkvmerge v5.8.0 ('No Sleep / Pillow') built on Sep 2 2012 15:37:04
Writing library : libebml v1.2.3 + libmatroska v1.3.0

Video
ID : 1
Format : AVC
Format/Info : Advanced Video Codec
Format profile : High@L4.1
Format settings, CABAC : Yes
Format settings, ReFrames : 9 frames
Codec ID : V_MPEG4/ISO/AVC
Duration : 1h 3mn
Bit rate : 6 054 Kbps
Width : 1 280 pixels
Height : 718 pixels
Display aspect ratio : 16:9
Frame rate mode : Constant
Frame rate : 23.976 fps
Color space : YUV
Chroma subsampling : 4:2:0
Bit depth : 8 bits
Scan type : Progressive
Bits/(Pixel*Frame) : 0.275
Stream size : 2.57 GiB (74%)
Title : Пять сантиметров в секунду.(2007).BDRip.720p.[envy]
Writing library : x264 core 140 r2377 1ca7bb9
Encoding settings : cabac=1 / ref=9 / deblock=1:0:0 / analyse=0x3:0x133 / me=umh / subme=11 / psy=1 / psy_rd=1.00:0.00 / mixed_ref=1 / me_range=48 / chroma_me=1 / trellis=2 / 8x8dct=1 / cqm=0 / deadzone=21,11 / fast_pskip=0 / chroma_qp_offset=-2 / threads=12 / lookahead_threads=1 / sliced_threads=0 / nr=0 / decimate=1 / interlaced=0 / bluray_compat=0 / constrained_intra=0 / bframes=6 / b_pyramid=2 / b_adapt=2 / b_bias=0 / direct=3 / weightb=1 / open_gop=0 / weightp=2 / keyint=240 / keyint_min=23 / scenecut=40 / intra_refresh=0 / rc=2pass / mbtree=0 / bitrate=6054 / ratetol=2.0 / qcomp=0.60 / qpmin=0 / qpmax=69 / qpstep=4 / cplxblur=20.0 / qblur=0.5 / ip_ratio=1.40 / pb_ratio=1.30 / aq=1:0.90
Language : Japanese
Default : Yes
Forced : No

Audio #1
ID : 2
Format : AC-3
Format/Info : Audio Coding 3
Mode extension : CM (complete main)
Format settings, Endianness : Big
Codec ID : A_AC3
Duration : 1h 3mn
Bit rate mode : Constant
Bit rate : 448 Kbps
Channel count : 6 channels
Channel positions : Front: L C R, Side: L R, LFE
Sampling rate : 48.0 KHz
Bit depth : 16 bits
Compression mode : Lossy
Stream size : 203 MiB (6%)
Title : Dub
Language : Russian
Default : Yes
Forced : No

Audio #2
ID : 3
Format : AC-3
Format/Info : Audio Coding 3
Mode extension : CM (complete main)
Format settings, Endianness : Big
Codec ID : A_AC3
Duration : 1h 3mn
Bit rate mode : Constant
Bit rate : 448 Kbps
Channel count : 4 channels
Channel positions : Front: L C R, Back: C
Sampling rate : 48.0 KHz
Bit depth : 16 bits
Compression mode : Lossy
Stream size : 203 MiB (6%)
Title : Dobri Skazochnik & Keneretta
Language : Russian
Default : No
Forced : No

Audio #3
ID : 4
Format : AC-3
Format/Info : Audio Coding 3
Mode extension : CM (complete main)
Format settings, Endianness : Big
Codec ID : A_AC3
Duration : 1h 3mn
Bit rate mode : Constant
Bit rate : 128 Kbps
Channel count : 2 channels
Channel positions : Front: L R
Sampling rate : 48.0 KHz
Bit depth : 16 bits
Compression mode : Lossy
Stream size : 58.1 MiB (2%)
Title : Cuba77
Language : Russian
Default : No
Forced : No

Audio #4
ID : 5
Format : AC-3
Format/Info : Audio Coding 3
Mode extension : CM (complete main)
Format settings, Endianness : Big
Codec ID : A_AC3
Duration : 1h 3mn
Bit rate mode : Constant
Bit rate : 448 Kbps
Channel count : 6 channels
Channel positions : Front: L C R, Side: L R, LFE
Sampling rate : 48.0 KHz
Bit depth : 16 bits
Compression mode : Lossy
Stream size : 203 MiB (6%)
Title : Eng
Language : English
Default : No
Forced : No

Audio #5
ID : 6
Format : AC-3
Format/Info : Audio Coding 3
Mode extension : CM (complete main)
Format settings, Endianness : Big
Codec ID : A_AC3
Duration : 1h 3mn
Bit rate mode : Constant
Bit rate : 448 Kbps
Channel count : 4 channels
Channel positions : Front: L C R, Back: C
Sampling rate : 48.0 KHz
Bit depth : 16 bits
Compression mode : Lossy
Stream size : 203 MiB (6%)
Title : Jpn
Language : Japanese
Default : No
Forced : No

Text #1
ID : 7
Format : UTF-8
Codec ID : S_TEXT/UTF8
Codec ID/Info : UTF-8 Plain Text
Title : rus full
Language : Russian
Default : No
Forced : No

Text #2
ID : 8
Format : UTF-8
Codec ID : S_TEXT/UTF8
Codec ID/Info : UTF-8 Plain Text
Title : eng full
Language : English
Default : No
Forced : No

Menu
00:00:07.100 : :Story 1
00:25:55.280 : :Story 2
00:48:31.590 : :Story 3


При поддержке:



   Похожие торренты   Торрент   Размер 
В этой теме нет новых непрочитанных сообщений. Пять сантиметров в секунду / Byousoku 5 Centimeter / 5 Centimeters per Second (2007) BDRemux-1080p от Stranik 2.0 | D

63 | 12

14.99 ГБ

В этой теме нет новых непрочитанных сообщений. Пять сантиметров в секунду / Byousoku 5 Centimeter / 5 Centimeters per Second (2010) JPG

9 | 3

246.75 МБ

В этой теме нет новых непрочитанных сообщений. OST. Пять сантиметров в секунду / Byousoku 5 Centimeter (2007) MP3

4 | 2

95.51 МБ

В этой теме нет новых непрочитанных сообщений. OST. Пять сантиметров в секунду / Byousoku 5 Centimeter (2007) FLAC

0 | 2

191.14 МБ

В этой теме нет новых непрочитанных сообщений. 5 сантиметров в секунду / 5 Centimeters per Second / Byôsoku 5 senchimêtoru (2007) BDRip-AVC | iPad | D

27 | 7

1.16 ГБ

В этой теме нет новых непрочитанных сообщений. 5 сантиметров в секунду / Byôsoku 5 senchimêtoru (2007) BDRip 720p от leonardo 59 & Scarabey

275 | 8

1.12 ГБ

В этой теме нет новых непрочитанных сообщений. 5 сантиметров в секунду / Byôsoku 5 senchimêtoru (2007) BDRip-AVC от NNNB | D

84 | 3

1.45 ГБ




Вы не можете начинать темы
Вы не можете отвечать на сообщения
Вы не можете редактировать свои сообщения
Вы не можете удалять свои сообщения
Вы не можете добавлять вложения

Перейти:  
Для Мосгорсуда, Роскомнадзора и рекламодателей: mosgorsud-torrent[собачка]yandex.ru
 Вход
ppkBB3cker v.2 © 2008-2014 @ PPK
[ Time : 5.536s | 14 Queries | GZIP : Off ]
CGP output time : 0.033s | 5 Queries | GZIP : Off

Торрент трекер RUTOR.IN, Не можете зайти на rutor.org? Какой новый адрес рутор? Какое зеркало рутор? Не работает rutor.org и зеркала? Тогда наш торрент специально для вас. Rutor.in неофициальное зеркало rutor. В случае если у Вас заблокирован rutor или вдруг Вы не можете на него зайти, то Вы без труда сможете скачать бесплатно и без рекламы последние новинки кино, игр, сериалов и прочего у нас, на Rutor.in. Не нужно использовать прокси, чтобы зайти на рутор, достаточно воспользоваться нашим ресурсом. Все новые фильмы, игры, сериалы, книги и музыка за 2013 и 2014 годы через торрент бесплатно. Скачивайте фильмы в хорошем качестве, игры для пк, xbox, playstation без регистрации. У нас вы найдете новые Зарубежные сериалы и Русские сериалы 2013, 2014, 2015 годов. Оставайтесь с нами, качайте любимые фильмы, игры, сериалы, книги и музыку.